img image001 image001 image001 image001 image001 image001 image001 image001 image001 image001 image001 image001 image001 image001 image001

Planets Sun Sun Sun
Статистика раздачи
Автор: Nickolas3434 | Размер: 11.67 ГБ | Добавлен: 01 май 2014
Раздают: 78    Качают: 225
Скачать торрент
Скачать торрент
Описание торрента

СообщениеДобавлено: 01 май 2014 



Информация о фильме
Название: Игра престолов
Оригинальное название: Game of Thrones
Год выхода: 2014
Жанр: фэнтези, драма, приключения
Режиссер: Алик Сахаров, Алекс Грейвз, Мишель Макларен
В ролях: Лина Хиди, Питер Динклэйдж, Эмилия Кларк, Кит Харингтон, Стивен Диллэйн, Натали Дормер, Николай Костер-Вальдау, Гвендолин Кристи, Джек Глисон, Лиам Каннингем, Мишель Фэйрли, Ричард Мэдден, Мэйси Уильямс, Софи Тернер, Айзек Хемпстед-Райт, Чарльз Дэнс, Джон Брэдли, Рори МакКанн...

О фильме:
«Игра престолов» - сериал HBO, основанный на бестселлерах Джорджа Р.Р. Мартина. В Вестеросе наступила осень — предвестник долгой зимы, когда Белые ходоки пробудятся ото сна. Но Стена и её защитники позабыты: три короля претендуют на Железный трон и два верховных лорда провозгласили себя королями над своими землями. Никто из них не желает заключить союзы, и каждый считает свое право на трон священным. И воцарился над миром кровавый хаос войны. И началась великая битва, в которой наградою победителю станет Железный Трон Семи Королевств.

Четвертый сезон «Игры престолов» поставлен преимущественно по второй половине третьего тома «Песни Льда и Пламени» («Буря мечей») и отчасти по «Пиру стервятников» и «Танцу с драконами».



Страна: США
Студия: HBO
Продолжительность: 00:55:00
Перевод: Профессиональный (многоголосый, закадровый) LostFilm

Файл
Релиз от: Lostfilm
Качество: HDTV 1080p
Формат:MKV
Кодек: MPEG-4 AVC
Видео: 1920x1080 , 23,976 fps, ~6600 kbps
Звук: Аудио кодек: AC3
Аудио Rus: 48 kHz, AC3, 2 ch, 384 kbps
Аудио Eng: 48 kHz, AC3, 2 ch, 384 kbps

01. Two Swords - Два меча
02. The Lion and the Rose - Лев и Роза
03. Breaker of Chains - Разрушительница оков
04. Oathkeeper - Верный клятве
General
Format: Matroska
Format version: Version 2
File size: 3.05 GiB
Duration: 1h 0mn
Overall bit rate: 7 252 Kbps
Encoded date: UTC 2014-04-10 09:55:17
Writing application: mkvmerge v4.2.0 ('No Talking') сборка от Jul 28 2010 18:38:23
Writing library: libebml v1.0.0 + libmatroska v1.0.0

Video
ID: 1
Format: AVC
Format/Info: Advanced Video Codec
Format profile: High@L4.0
Format settings, CABAC: Yes
Format settings, ReFrames: 2 frames
Codec ID: V_MPEG4/ISO/AVC
Duration: 1h 0mn
Bit rate: 6 600 Kbps
Width: 1 920 pixels
Height: 1 080 pixels
Display aspect ratio: 16:9
Frame rate mode: Constant
Frame rate: 23.976 fps
Color space: YUV
Chroma subsampling: 4:2:0
Bit depth: 8 bits
Scan type: Progressive
Bits/(Pixel*Frame): 0.133
Stream size: 2.67 GiB (87%)
Writing library: x264 core 112 r1834 a51816a
Encoding settings: cabac=1 / ref=1 / deblock=1:0:0 / analyse=0x3:0x133 / me=umh / subme=6 / psy=1 / psy_rd=1.00:0.00 / mixed_ref=0 / me_range=16 / chroma_me=1 / trellis=1 / 8x8dct=1 / cqm=0 / deadzone=21,11 / fast_pskip=1 / chroma_qp_offset=-2 / threads=6 / sliced_threads=0 / nr=0 / decimate=1 / interlaced=0 / constrained_intra=0 / bframes=3 / b_pyramid=0 / b_adapt=1 / b_bias=0 / direct=3 / weightb=1 / open_gop=0 / weightp=2 / keyint=250 / keyint_min=25 / scenecut=40 / intra_refresh=0 / rc_lookahead=40 / rc=abr / mbtree=1 / bitrate=6600 / ratetol=1.0 / qcomp=0.60 / qpmin=0 / qpmax=51 / qpstep=4 / ip_ratio=1.40 / aq=1:1.00
Default: Yes
Forced: No

Audio #1
ID: 2
Format: AC-3
Format/Info: Audio Coding 3
Mode extension: CM (complete main)
Format settings, Endianness: Big
Codec ID: A_AC3
Duration: 1h 0mn
Bit rate mode: Constant
Bit rate: 384 Kbps
Channel(s): 2 channels
Channel positions: Front: L R
Sampling rate: 48.0 KHz
Bit depth: 16 bits
Compression mode: Lossy
Stream size: 166 MiB (5%)
Default: Yes
Forced : No

Audio #2
ID: 3
Format: AC-3
Format/Info: Audio Coding 3
Mode extension: CM (complete main)
Format settings, Endianness: Big
Codec ID: A_AC3
Duration: 1h 0mn
Bit rate mode: Constant
Bit rate: 384 Kbps
Channel(s): 2 channels
Channel positions: Front: L R
Sampling rate: 48.0 KHz
Bit depth: 16 bits
Compression mode: Lossy
Stream size: 166 MiB (5%)
Default: No
Forced: No
Когда раздача ведётся путём добавления новых серий, при каждом добавлении создётся новый торрент. Чтобы начать докачку новой серии, пользователям необходимо сделать следующее:
(1) остановить скачивание,
(2) удалить старый торрент у себя из клиента (старые серии удалять не надо),
(3) скачать новый торрент и запустить его у себя в клиенте вместо старого, при этом указать клиенту путь в старую папку, куда и должно происходить скачивание новых серий.
Ваш клиент при этом должен произвести хеширование (проверку) старой папки (если не производит сам - помогите ему сделать это), и будет докачивать только те серии, которых у вас ещё нет. Старые серии при этом не удаляются, а продолжают раздаваться!
Eсли вы уже удалили старые серии, то предотвратить повторную закачку старых серий можно, отжав галочку в соответсвующих местах при запуске нового торрента. По возможности, желательно не удалять старые серии как можно дольше, чтобы релизёр не столько продолжал раздавать старые серии, а смог сконцентрироваться на новых.



   Похожие торренты   Торрент   Размер 
В этой теме нет новых непрочитанных сообщений. Игра престолов / Game of Thrones [04x01-03 из 10] (2014) HDTV 1080p | Lostfilm

18 | 24

8.82 ГБ

В этой теме нет новых непрочитанных сообщений. Игра престолов / Game of Thrones [04x01-02 из 10] (2014) HDTV 1080p | Lostfilm

484 | 1263

5.78 ГБ

В этой теме нет новых непрочитанных сообщений. Игра престолов / Game of Thrones [04x01-02 из 10] (2014) HDTV 1080p | Amedia, LostFilm, AlexFilm, FOX

56 | 45

5.97 ГБ

В этой теме нет новых непрочитанных сообщений. Игра престолов / Game of Thrones [04x01-04 из 10] (2014) HDTV 1080p | LostFilm, AlexFilm, FOX, Amedia

1 | 7

12.01 ГБ

В этой теме нет новых непрочитанных сообщений. Игра престолов / Game of Thrones [04x01-03 из 10] (2014) HDTV 1080p | LostFilm, AlexFilm, FOX, Amedia

8 | 6

9.04 ГБ

В этой теме нет новых непрочитанных сообщений. Игра престолов / Game of Thrones [04x01-04 из 10] (2014) HDTV 720p | LostFilm

64 | 163

6.45 ГБ

В этой теме нет новых непрочитанных сообщений. Игра престолов / Game of Thrones [04x01-02 из 10] (2014) HDTV 720p | LostFilm

652 | 717

3.21 ГБ




Вы не можете начинать темы
Вы не можете отвечать на сообщения
Вы не можете редактировать свои сообщения
Вы не можете удалять свои сообщения
Вы не можете добавлять вложения

Перейти:  
Для Мосгорсуда, Роскомнадзора и рекламодателей: mosgorsud-torrent[собачка]yandex.ru
 Вход
ppkBB3cker v.2 © 2008-2014 @ PPK
[ Time : 0.054s | 15 Queries | GZIP : Off ]

cron