img image001 image001 image001 image001 image001 image001 image001 image001 image001 image001 image001 image001 image001 image001 image001

Planets Sun Sun Sun
Статистика раздачи
Автор: Nickolas3434 | Размер: 7.04 ГБ | Добавлен: 03 май 2014
Раздают: 115    Качают: 171
Скачать торрент
Скачать торрент
Описание торрента

СообщениеДобавлено: 03 май 2014 

Информация о фильме
Название: Фарго
Оригинальное название: Fargo
Год выхода: 2014
Жанр: Драма, Криминал
Режиссер: Мэтт Шекман, Скотт Уинант, Адам Бернштейн
В ролях: Мартин Фриман, Билли Боб Торнтон, Боб Оденкёрк, Джули Энн Эмери, Колин Хэнкс, Джои Кинг, Оливер Платт, Кейт Уолш, Джошуа Клоуз, Спенсер Древер

О фильме:
Бродяга по имени Лорн приезжает в небольшой городок в штате Миннесота. Он поражает местное население своей злобой и жестокостью, а также подчиняет себе страхового агента Лестера…



Страна: США
Студия: FX
Продолжительность: 01:00:00
Перевод: Профессиональный (двухголосый) Кубик в Кубе

Файл
Релиз от: Кубик в Кубе
Качество: WEB-DL 1080p
Формат:MKV
Кодек: H.264
Видео: 1920x1080 , 23,976 fps, 5000 kbps
Звук: Аудио кодек: AC3
Аудио Rus: 48 kHz, AC3, 6 ch, 384 kbps
Аудио Eng: 48 kHz, AC3, 6 ch, 384 kbps

Релиз от: Кубик в Кубе
При поддержке: Андрюха Фадин
Работа со звуком: ЛП

01. Крокодилов парадокс / The Crocodile's Dilemma
02. Принц-петух / The Rooster Prince
03. Грязное дельце / A Muddy Road
General
Format : Matroska
Format version : Version 4 / Version 2
File size : 2.07 GiB
Duration : 51mn 21s
Overall bit rate : 5 778 Kbps
Movie name : Fargo.s01e02
Encoded date : UTC 2014-04-25 16:54:11
Writing application : mkvmerge v6.8.0 ('Theme for Great Cities') 64bit built on Mar 2 2014 21:34:26
Writing library : libebml v1.3.0 + libmatroska v1.4.1

Video
ID : 1
Format : AVC
Format/Info : Advanced Video Codec
Format profile : High@L4.0
Format settings, CABAC : Yes
Format settings, ReFrames : 4 frames
Codec ID : V_MPEG4/ISO/AVC
Duration : 51mn 21s
Bit rate : 4 895 Kbps
Width : 1 920 pixels
Height : 1 080 pixels
Display aspect ratio : 16:9
Frame rate mode : Constant
Frame rate : 23.976 fps
Color space : YUV
Chroma subsampling : 4:2:0
Bit depth : 8 bits
Scan type : Progressive
Bits/(Pixel*Frame) : 0.098
Stream size : 1.76 GiB (85%)
Title : Fargo.s01e02
Language : English
Default : Yes
Forced : No
Color primaries : BT.709
Transfer characteristics : BT.709
Matrix coefficients : BT.709

Audio #1
ID : 2
Format : AC-3
Format/Info : Audio Coding 3
Mode extension : CM (complete main)
Format settings, Endianness : Big
Codec ID : A_AC3
Duration : 51mn 21s
Bit rate mode : Constant
Bit rate : 384 Kbps
Channel(s) : 6 channels
Channel positions : Front: L C R, Side: L R, LFE
Sampling rate : 48.0 KHz
Bit depth : 16 bits
Compression mode : Lossy
Stream size : 141 MiB (7%)
Title : KvK
Language : Russian
Default : Yes
Forced : No

Audio #2
ID : 3
Format : AC-3
Format/Info : Audio Coding 3
Mode extension : CM (complete main)
Format settings, Endianness : Big
Codec ID : A_AC3
Duration : 51mn 21s
Bit rate mode : Constant
Bit rate : 384 Kbps
Channel(s) : 6 channels
Channel positions : Front: L C R, Side: L R, LFE
Sampling rate : 48.0 KHz
Bit depth : 16 bits
Compression mode : Lossy
Stream size : 141 MiB (7%)
Title : Original
Language : English
Default : No
Forced : No
Когда раздача ведётся путём добавления новых серий, при каждом добавлении создётся новый торрент. Чтобы начать докачку новой серии, пользователям необходимо сделать следующее:
(1) остановить скачивание,
(2) удалить старый торрент у себя из клиента (старые серии удалять не надо),
(3) скачать новый торрент и запустить его у себя в клиенте вместо старого, при этом указать клиенту путь в старую папку, куда и должно происходить скачивание новых серий.
Ваш клиент при этом должен произвести хеширование (проверку) старой папки (если не производит сам - помогите ему сделать это), и будет докачивать только те серии, которых у вас ещё нет. Старые серии при этом не удаляются, а продолжают раздаваться!
Eсли вы уже удалили старые серии, то предотвратить повторную закачку старых серий можно, отжав галочку в соответсвующих местах при запуске нового торрента. По возможности, желательно не удалять старые серии как можно дольше, чтобы релизёр не столько продолжал раздавать старые серии, а смог сконцентрироваться на новых.



   Похожие торренты   Торрент   Размер 
В этой теме нет новых непрочитанных сообщений. Фарго / Fargo [01x01-05 из 10] (2014) WEB-DL 1080p | LostFilm, Кубик в Кубе

52 | 34

10.99 ГБ

В этой теме нет новых непрочитанных сообщений. Фарго / Fargo [01x01-07 из 10] (2014) WEB-DL 1080p | LostFilm, Кубик в Кубе

10 | 21

15.08 ГБ

В этой теме нет новых непрочитанных сообщений. Фарго / Fargo [01x01-06 из 10] (2014) WEB-DL 1080p | LostFilm, Кубик в Кубе

18 | 30

13.14 ГБ

В этой теме нет новых непрочитанных сообщений. Фарго / Fargo [01x01-09 из 10] (2014) WEB-DL 1080p | LostFilm, Кубик в Кубе

4 | 34

19.31 ГБ

В этой теме нет новых непрочитанных сообщений. Фарго / Fargo [01x01-06 из 10] (2014) WEB-DLRip | Кубик в Кубе

16 | 26

2.6 ГБ

В этой теме нет новых непрочитанных сообщений. Фарго / Fargo [01x01-07 из 10] (2014) WEB-DLRip | Кубик в Кубе

30 | 31

2.98 ГБ

В этой теме нет новых непрочитанных сообщений. Фарго / Fargo [01x01-09 из 10] (2014) WEB-DLRip | Кубик в Кубе

61 | 107

3.82 ГБ




Вы не можете начинать темы
Вы не можете отвечать на сообщения
Вы не можете редактировать свои сообщения
Вы не можете удалять свои сообщения
Вы не можете добавлять вложения

Перейти:  
Для Мосгорсуда, Роскомнадзора и рекламодателей: mosgorsud-torrent[собачка]yandex.ru
 Вход
ppkBB3cker v.2 © 2008-2014 @ PPK
[ Time : 1.967s | 15 Queries | GZIP : Off ]

Торрент трекер RUTOR.IN, Не можете зайти на rutor.org? Какой новый адрес рутор? Какое зеркало рутор? Не работает rutor.org и зеркала? Тогда наш торрент специально для вас. Rutor.in неофициальное зеркало rutor. В случае если у Вас заблокирован rutor или вдруг Вы не можете на него зайти, то Вы без труда сможете скачать бесплатно и без рекламы последние новинки кино, игр, сериалов и прочего у нас, на Rutor.in. Не нужно использовать прокси, чтобы зайти на рутор, достаточно воспользоваться нашим ресурсом. Все новые фильмы, игры, сериалы, книги и музыка за 2013 и 2014 годы через торрент бесплатно. Скачивайте фильмы в хорошем качестве, игры для пк, xbox, playstation без регистрации. У нас вы найдете новые Зарубежные сериалы и Русские сериалы 2013, 2014, 2015 годов. Оставайтесь с нами, качайте любимые фильмы, игры, сериалы, книги и музыку.