img image001 image001 image001 image001 image001 image001 image001 image001 image001 image001 image001 image001 image001 image001 image001

Planets Sun Sun Sun
Статистика раздачи
Автор: Nickolas3434 | Размер: 1.89 ГБ | Добавлен: 04 май 2014
Раздают: 25    Качают: 14
Скачать торрент
Скачать торрент
Описание торрента

СообщениеДобавлено: 04 май 2014 

Название: Дракула
Оригинальное название: Dracula
Год выхода: 2013
Жанр: Мистическая драма, ужасы, вампиры
Режиссер: Энди Годдар, Стив Шилл, Брайан Келли
В ролях: Джонатан Рис-Майерс, Оливер Джексон-Коэн, Джессика Де Гау, Томас Кречманн, Кэти МакГрат, Нонсо Анози, Виктория Смёрфит, Бен Майлз

О фильме:
Сериал расскажет о Дракуле, когда тот приезжает в Лондон, выдавая себя за американского предпринимателя, развивающего современную науку в викторианском обществе. В действительности он хочет отомстить тем, кто разрушил его жизнь несколькими веками ранее. Однако, есть одно обстоятельство, которое может сорвать его план: Дракула безнадежно влюблен в женщину, которая кажется ему перевоплощением его умершей жены.



Страна: США
Студия: Carnival Film & Television, Flame Ventures, NBC Universal Television
Продолжительность: 10 ~ 00:43:00
Перевод: Профессиональный (многоголосый, закадровый) [Домашний]

Файл
Формат: MP4
Качество: WEB-DLRip | КПК
Видео: MPEG-4 AVC (x264), 640x360, ~500 kbps, 25.000 fps
Аудио: AAC LC, 48.0 KHz, 2 ch, 128 Kbps
Субтитры: Нет

Семпл


General
Complete name : E:KinoDrakula.AVC.KPK.GeneralfilmDrakula.S01.2013-2014.AVC.WEB-DLRip.KPK.Dom.GeneralfilmDrakula.s01e06.2014.AVC.WEB-DLRip.KPK.Generalfilm.mp4
Format : MPEG-4
Format profile : Base Media
Codec ID : isom
File size : 192 MiB
Duration : 42mn 37s
Overall bit rate mode : Variable
Overall bit rate : 630 Kbps
Encoded date : UTC 2014-04-09 08:16:06
Tagged date : UTC 2014-04-09 08:16:06

Video
ID : 1
Format : AVC
Format/Info : Advanced Video Codec
Format profile : Baseline@L4.1
Format settings, CABAC : No
Format settings, ReFrames : 6 frames
Codec ID : avc1
Codec ID/Info : Advanced Video Coding
Duration : 42mn 37s
Bit rate : 500 Kbps
Maximum bit rate : 3 605 Kbps
Width : 640 pixels
Height : 360 pixels
Display aspect ratio : 16:9
Frame rate mode : Constant
Frame rate : 25.000 fps
Color space : YUV
Chroma subsampling : 4:2:0
Bit depth : 8 bits
Scan type : Progressive
Bits/(Pixel*Frame) : 0.087
Stream size : 152 MiB (79%)
Writing library : x264 core 119 r2106 07efeb4
Encoding settings : cabac=0 / ref=6 / deblock=1:-1:-1 / analyse=0x1:0x111 / me=umh / subme=7 / psy=1 / psy_rd=1.00:0.00 / mixed_ref=0 / me_range=16 / chroma_me=1 / trellis=1 / 8x8dct=0 / cqm=0 / deadzone=21,11 / fast_pskip=0 / chroma_qp_offset=-2 / threads=3 / sliced_threads=0 / nr=0 / decimate=1 / interlaced=0 / bluray_compat=0 / constrained_intra=0 / bframes=0 / weightp=0 / keyint=250 / keyint_min=25 / scenecut=40 / intra_refresh=0 / rc_lookahead=60 / rc=2pass / mbtree=1 / bitrate=500 / ratetol=1.0 / qcomp=0.60 / qpmin=0 / qpmax=69 / qpstep=4 / cplxblur=20.0 / qblur=0.5 / ip_ratio=1.40 / aq=1:1.00
Encoded date : UTC 2014-04-09 08:16:06
Tagged date : UTC 2014-04-09 08:17:30

Audio
ID : 2
Format : AAC
Format/Info : Advanced Audio Codec
Format profile : LC
Codec ID : 40
Duration : 42mn 37s
Bit rate mode : Variable
Bit rate : 128 Kbps
Maximum bit rate : 158 Kbps
Channel count : 2 channels
Channel positions : Front: L R
Sampling rate : 48.0 KHz
Compression mode : Lossy
Stream size : 39.0 MiB (20%)
Encoded date : UTC 2014-04-09 08:17:22
Tagged date : UTC 2014-04-09 08:17:30

Релиз от:



   Похожие торренты   Торрент   Размер 
В этой теме нет новых непрочитанных сообщений. Дракула [S01] / Dracula (2013-2014) WEB-DL от Generalfilm | КПК | Домашний

202 | 15

1.44 ГБ

В этой теме нет новых непрочитанных сообщений. Дракула / Dracula [S01] (2013-2014) WEB-DL 720p от MediaClub | Домашний, AlexFilm, LostFilm, BaibaKo, Byako Records

6 | 18

18.26 ГБ

В этой теме нет новых непрочитанных сообщений. Дракула / Dracula [S01] (2013-2014) WEB-DL 1080p от MediaClub | Домашний, AlexFilm, LostFilm, BaibaKo, Byako Records

31 | 35

21.11 ГБ

В этой теме нет новых непрочитанных сообщений. Дракула / Dracula [s01] (2013-2014) WEB-DLRip-AVC

37 | 16

8.78 ГБ

В этой теме нет новых непрочитанных сообщений. Дракула / Dracula [S01] (2013-2014) WEB-DLRip | NewStudio

31 | 12

5.68 ГБ

В этой теме нет новых непрочитанных сообщений. Дракула / Dracula [S01] (2013-2014) WEB-DLRip | BaibaKo

14 | 7

6.42 ГБ

В этой теме нет новых непрочитанных сообщений. Дракула / Dracula [S01] (2013-2014) WEB-DLRip | LostFilm

97 | 26

3.8 ГБ




Вы не можете начинать темы
Вы не можете отвечать на сообщения
Вы не можете редактировать свои сообщения
Вы не можете удалять свои сообщения
Вы не можете добавлять вложения

Перейти:  
Для Мосгорсуда, Роскомнадзора и рекламодателей: mosgorsud-torrent[собачка]yandex.ru
 Вход
ppkBB3cker v.2 © 2008-2014 @ PPK
[ Time : 0.526s | 15 Queries | GZIP : Off ]

Торрент трекер RUTOR.IN, Не можете зайти на rutor.org? Какой новый адрес рутор? Какое зеркало рутор? Не работает rutor.org и зеркала? Тогда наш торрент специально для вас. Rutor.in неофициальное зеркало rutor. В случае если у Вас заблокирован rutor или вдруг Вы не можете на него зайти, то Вы без труда сможете скачать бесплатно и без рекламы последние новинки кино, игр, сериалов и прочего у нас, на Rutor.in. Не нужно использовать прокси, чтобы зайти на рутор, достаточно воспользоваться нашим ресурсом. Все новые фильмы, игры, сериалы, книги и музыка за 2013 и 2014 годы через торрент бесплатно. Скачивайте фильмы в хорошем качестве, игры для пк, xbox, playstation без регистрации. У нас вы найдете новые Зарубежные сериалы и Русские сериалы 2013, 2014, 2015 годов. Оставайтесь с нами, качайте любимые фильмы, игры, сериалы, книги и музыку.