img image001 image001 image001 image001 image001 image001 image001 image001 image001 image001 image001 image001 image001 image001 image001

Planets Sun Sun Sun
Статистика раздачи
Автор: Nickolas3434 | Размер: 2.95 ГБ | Добавлен: 06 май 2014
Раздают: 24    Качают: 22
Скачать торрент
Скачать торрент
Описание торрента

СообщениеДобавлено: 06 май 2014 

Информация о фильме
Оригинальное название: Последний из Магикян
Год выхода: 2013
Жанр: Комедия, ситком
Режиссер: Резо Гигинеишвили
В ролях: Грант Тохатян, Анна Ардова, Андрей Бурковский, Алина Гринберг, Луиза-Габриэла Бровина, Элен Касьяник

О фильме:
Карену Магикяну 45 лет. Он — глава семьи и отец трех дочерей. В этом возрасте люди уже не меняются. Он давно сформулировал законы и правила, по которым живет, и нарушать ничего не собирается. Ему-то самому кажется, что за последние 10-15 лет он ничуть не изменился, ни капельки не постарел. Более того — он считает себя вполне современным человеком, хотя у него мобильный телефон с черно-белым экраном и нет электронной почты.
Вот это, кстати, его раздражает особенно сильно — с чего все вокруг сходят с ума по этим гаджетам, айпэдам, айфонам. Почему младшая дочь, вернувшись из школы, сразу идет в интернет, а не поцеловать папу? «Общаться» — это же значит сидеть за столом, пить вино и разговаривать, а не пялиться в экран компьютера и портить себе глаза.



Страна: Россия
Студия: "ВБД Груп" при участие кинокомпании "Небо" по заказу СТС
Продолжительность: 28 х ~ 00:24:00
Перевод: Не требуется

Файл
Формат: MP4
Качество: WEB-DLRip | КПК
Видео: MPEG-4 AVC (x264), 640x360, ~500 kbps, 25.000 fps
Аудио: AAC LC, 48.0 KHz, 2 ch, 128 Kbps
Субтитры: Нет

Семпл


Complete name : E:KinoPosledniy.Iz.Magikyan.AVC.WEB-DLRip.KPK.GeneralfilmPosledniy.Iz.Magikyan.S01.2013.AVC.WEB-DLRip.KPK.GeneralfilmPosledniy.Iz.Magikyan.s01e07.2013.AVC.WEB-DLRip.KPK.Generalfilm.mp4
Format : MPEG-4
Format profile : Base Media
Codec ID : isom
File size : 110 MiB
Duration : 24mn 24s
Overall bit rate mode : Variable
Overall bit rate : 630 Kbps
Encoded date : UTC 2014-04-12 14:01:02
Tagged date : UTC 2014-04-12 14:01:02

Video
ID : 1
Format : AVC
Format/Info : Advanced Video Codec
Format profile : Baseline@L4.1
Format settings, CABAC : No
Format settings, ReFrames : 6 frames
Codec ID : avc1
Codec ID/Info : Advanced Video Coding
Duration : 24mn 24s
Bit rate : 500 Kbps
Maximum bit rate : 1 730 Kbps
Width : 640 pixels
Height : 360 pixels
Display aspect ratio : 16:9
Frame rate mode : Constant
Frame rate : 25.000 fps
Color space : YUV
Chroma subsampling : 4:2:0
Bit depth : 8 bits
Scan type : Progressive
Bits/(Pixel*Frame) : 0.087
Stream size : 87.3 MiB (79%)
Writing library : x264 core 125 r2200 999b753
Encoding settings : cabac=0 / ref=6 / deblock=1:-1:-1 / analyse=0x1:0x111 / me=umh / subme=7 / psy=1 / psy_rd=1.00:0.00 / mixed_ref=0 / me_range=16 / chroma_me=1 / trellis=1 / 8x8dct=0 / cqm=0 / deadzone=21,11 / fast_pskip=0 / chroma_qp_offset=-2 / threads=12 / lookahead_threads=2 / sliced_threads=0 / nr=0 / decimate=1 / interlaced=0 / bluray_compat=0 / constrained_intra=0 / bframes=0 / weightp=0 / keyint=250 / keyint_min=25 / scenecut=40 / intra_refresh=0 / rc_lookahead=60 / rc=2pass / mbtree=1 / bitrate=500 / ratetol=1.0 / qcomp=0.60 / qpmin=0 / qpmax=69 / qpstep=4 / cplxblur=20.0 / qblur=0.5 / ip_ratio=1.40 / aq=1:1.00
Encoded date : UTC 2014-04-12 14:01:02
Tagged date : UTC 2014-04-12 14:01:04

Audio
ID : 2
Format : AAC
Format/Info : Advanced Audio Codec
Format profile : LC
Codec ID : 40
Duration : 24mn 24s
Bit rate mode : Variable
Bit rate : 128 Kbps
Maximum bit rate : 142 Kbps
Channel count : 2 channels
Channel positions : Front: L R
Sampling rate : 44.1 KHz
Compression mode : Lossy
Stream size : 22.3 MiB (20%)
Encoded date : UTC 2014-04-12 14:01:04
Tagged date : UTC 2014-04-12 14:01:04

Релиз от:



   Похожие торренты   Торрент   Размер 
В этой теме нет новых непрочитанных сообщений. Последний из Магикян [S01-03] (2013-2014) WEB-DLRip от Generalfilm | КПК

9 | 10

4.24 ГБ

В этой теме нет новых непрочитанных сообщений. Последний из Магикян [S01-04] (2013-2015) WEB-DLRip от Generalfilm | КПК

93 | 39

6.34 ГБ

В этой теме нет новых непрочитанных сообщений. Последний из Магикян [01-28 из 40] (2013-2014) WEB-DLRip

94 | 40

8.77 ГБ

В этой теме нет новых непрочитанных сообщений. Последний из Магикян [01-16 из 40] (2013) WEB-DLRip

36 | 93

5.07 ГБ

В этой теме нет новых непрочитанных сообщений. Последний из Магикян [01-20 из 40] (2013) WEB-DLRip

17 | 39

6.28 ГБ

В этой теме нет новых непрочитанных сообщений. Последний из Магикян [01-13 из 40] (2013) WEB-DLRip

11 | 20

4.12 ГБ

В этой теме нет новых непрочитанных сообщений. Последний из Магикян [01-18 из 40] (2013) WEB-DLRip

16 | 73

5.65 ГБ




Вы не можете начинать темы
Вы не можете отвечать на сообщения
Вы не можете редактировать свои сообщения
Вы не можете удалять свои сообщения
Вы не можете добавлять вложения

Перейти:  
Для Мосгорсуда, Роскомнадзора и рекламодателей: mosgorsud-torrent[собачка]yandex.ru
 Вход
ppkBB3cker v.2 © 2008-2014 @ PPK
[ Time : 0.039s | 15 Queries | GZIP : Off ]

Торрент трекер RUTOR.IN, Не можете зайти на rutor.org? Какой новый адрес рутор? Какое зеркало рутор? Не работает rutor.org и зеркала? Тогда наш торрент специально для вас. Rutor.in неофициальное зеркало rutor. В случае если у Вас заблокирован rutor или вдруг Вы не можете на него зайти, то Вы без труда сможете скачать бесплатно и без рекламы последние новинки кино, игр, сериалов и прочего у нас, на Rutor.in. Не нужно использовать прокси, чтобы зайти на рутор, достаточно воспользоваться нашим ресурсом. Все новые фильмы, игры, сериалы, книги и музыка за 2013 и 2014 годы через торрент бесплатно. Скачивайте фильмы в хорошем качестве, игры для пк, xbox, playstation без регистрации. У нас вы найдете новые Зарубежные сериалы и Русские сериалы 2013, 2014, 2015 годов. Оставайтесь с нами, качайте любимые фильмы, игры, сериалы, книги и музыку.