img image001 image001 image001 image001 image001 image001 image001 image001 image001 image001 image001 image001 image001 image001 image001

Planets Sun Sun Sun
Статистика раздачи
Автор: PriZraK | Размер: 2.74 ГБ | Добавлен: 17 май 2014
Раздают: 6    Качают: 4
Скачать торрент
Скачать торрент
Описание торрента

СообщениеДобавлено: 17 май 2014 

Информация о фильме
Оригинальное название: Переводчик
Год выхода: 2013
Жанр: Драма, военный
Режиссер: Андрей Прошкин
В ролях: Виталий Хаев, Йоахим Пауль Ассбeк, Лариса Малеванная, Карина Андоленко, Ханс-Георг Блюмрайтер, Петар Зекавица, Анна Уколова, Борис Каморзин, Ольга Лапшина, Михаил Горбатов
О фильме:
Преподаватель химии Андрей Петрович Стариков по прозвищу "Чарли Чаплин" живет с женой и матерью в старом доме-колодце, в котором, как в ковчеге, собрался пестрый интернационал: украинцы, русские, евреи, татары и армяне. Но приход немцев резко меняет их жизни. Чтобы спасти своих близких, Чарли вынужден служить переводчиком в фашистском штабе...

Страна: Россия
Студия: "Марс Медиа Энтертейнмент"
Продолжительность: 4 х ~ 00:50:00
Перевод: Не требуется
Файл
Кодек: MPEG-4 AVC
Качество: HDTVRip-AVC
Видео: High@L4.1, 960х540, 25 fps, ~ 1830 kbps
Звук: 48 kHz, AC3, 2 ch, 128 kbps
General
Unique ID : 201375214303866379075296267110194105185 (0x977F749D84656975BF3A7CE950EC4B61)
Complete name : F:СериалыPerevodchik.2014.HDTVRip-AVC.(540p).[-=DoMiNo=-]Perevodchik.01.mkv
Format : Matroska
Format version : Version 2
File size : 702 MiB
Duration : 49mn 58s
Overall bit rate : 1 963 Kbps
Encoded date : UTC 2014-05-08 18:46:23
Writing application : mkvmerge v6.1.0 ('Old Devil') built on Mar 4 2013 09:10:42
Writing library : libebml v1.3.0 + libmatroska v1.4.0
Video
ID : 1
Format : AVC
Format/Info : Advanced Video Codec
Format profile : High@L4.1
Format settings, CABAC : Yes
Format settings, ReFrames : 8 frames
Codec ID : V_MPEG4/ISO/AVC
Duration : 49mn 58s
Bit rate : 1 833 Kbps
Width : 960 pixels
Height : 540 pixels
Display aspect ratio : 16:9
Frame rate mode : Constant
Frame rate : 25.000 fps
Color space : YUV
Chroma subsampling : 4:2:0
Bit depth : 8 bits
Scan type : Progressive
Bits/(Pixel*Frame) : 0.141
Stream size : 642 MiB (91%)
Writing library : x264 core 130 r2273 b3065e6
Encoding settings : cabac=1 / ref=8 / deblock=1:-3:-3 / analyse=0x3:0x133 / me=umh / subme=11 / psy=1 / psy_rd=1.00:0.50 / mixed_ref=1 / me_range=32 / chroma_me=1 / trellis=2 / 8x8dct=1 / cqm=0 / deadzone=21,11 / fast_pskip=0 / chroma_qp_offset=-3 / threads=16 / lookahead_threads=4 / sliced_threads=0 / nr=0 / decimate=1 / interlaced=0 / bluray_compat=0 / constrained_intra=0 / bframes=8 / b_pyramid=2 / b_adapt=2 / b_bias=0 / direct=3 / weightb=1 / open_gop=0 / weightp=2 / keyint=240 / keyint_min=23 / scenecut=40 / intra_refresh=0 / rc_lookahead=150 / rc=2pass / mbtree=1 / bitrate=1833 / ratetol=1.0 / qcomp=0.70 / qpmin=10 / qpmax=51 / qpstep=4 / cplxblur=20.0 / qblur=0.5 / ip_ratio=1.40 / aq=2:2.00
Default : Yes
Forced : No
Audio
ID : 2
Format : AC-3
Format/Info : Audio Coding 3
Mode extension : CM (complete main)
Format settings, Endianness : Big
Codec ID : A_AC3
Duration : 49mn 58s
Bit rate mode : Constant
Bit rate : 128 Kbps
Channel(s) : 2 channels
Channel positions : Front: L R
Sampling rate : 48.0 KHz
Bit depth : 16 bits
Compression mode : Lossy
Stream size : 45.8 MiB (7%)
Default : Yes
Forced : No



   Похожие торренты   Торрент   Размер 
В этой теме нет новых непрочитанных сообщений. Переводчик [01-04 из 04] (2013) HDTVRip 720p от MediaClub

3 | 3

7.39 ГБ

В этой теме нет новых непрочитанных сообщений. Переводчик [01-02 из 04] (2014) HDTVRip

8 | 3

1.27 ГБ

В этой теме нет новых непрочитанных сообщений. Переводчик [01-04 из 04] (2014) HDTVRip от MediaClub

70 | 9

2.92 ГБ

В этой теме нет новых непрочитанных сообщений. Переводчик [01 из 04] (2014) HDTVRip 720p от MediaClub

83 | 146

1.85 ГБ

В этой теме нет новых непрочитанных сообщений. Переводчик [01-04 из 04] (2013) WEB-DL 720p от MediaClub

20 | 6

2.76 ГБ

В этой теме нет новых непрочитанных сообщений. Переводчик [01-04 из 04] (2013) DVDRip-AVC от New-Team | лицензия

216 | 30

3.14 ГБ

В этой теме нет новых непрочитанных сообщений. Переводчик [01-04 из 04] (2013) DVD9 R5 от New-Team | лицензия

21 | 10

7.78 ГБ




Вы не можете начинать темы
Вы не можете отвечать на сообщения
Вы не можете редактировать свои сообщения
Вы не можете удалять свои сообщения
Вы не можете добавлять вложения

Перейти:  
Для Мосгорсуда, Роскомнадзора и рекламодателей: mosgorsud-torrent[собачка]yandex.ru
 Вход
ppkBB3cker v.2 © 2008-2014 @ PPK
[ Time : 0.060s | 16 Queries | GZIP : Off ]

Торрент трекер RUTOR.IN, Не можете зайти на rutor.org? Какой новый адрес рутор? Какое зеркало рутор? Не работает rutor.org и зеркала? Тогда наш торрент специально для вас. Rutor.in неофициальное зеркало rutor. В случае если у Вас заблокирован rutor или вдруг Вы не можете на него зайти, то Вы без труда сможете скачать бесплатно и без рекламы последние новинки кино, игр, сериалов и прочего у нас, на Rutor.in. Не нужно использовать прокси, чтобы зайти на рутор, достаточно воспользоваться нашим ресурсом. Все новые фильмы, игры, сериалы, книги и музыка за 2013 и 2014 годы через торрент бесплатно. Скачивайте фильмы в хорошем качестве, игры для пк, xbox, playstation без регистрации. У нас вы найдете новые Зарубежные сериалы и Русские сериалы 2013, 2014, 2015 годов. Оставайтесь с нами, качайте любимые фильмы, игры, сериалы, книги и музыку.