img image001 image001 image001 image001 image001 image001 image001 image001 image001 image001 image001 image001 image001 image001 image001

Planets Sun Sun Sun
Статистика раздачи
Автор: PriZraK | Размер: 3.94 ГБ | Добавлен: 16 май 2014
Раздают: 5    Качают: 2
Скачать торрент
Скачать торрент
Описание торрента

СообщениеДобавлено: 16 май 2014 

Информация о фильме
Название: Древние / Первородные
Оригинальное название: The Originals
Год выхода: 2013
Жанр: Ужасы, фэнтези, драма
Режиссер: Брэд Тёрнер
В ролях: Джозеф Морган, Дэниэл Гиллис, Чарльз Майкл Дэвис, Каллард Харрис, Александра Фикен, Даниэль Кэмпбелл, Эка Дарвилл, Клер Холт, Даниэлла Пинеда, Леа Пайпс
О фильме:
Сила — в семье. Семья Древнейших дала зарок тысячу лет назад: они торжественно поклялись держаться друг друга, вместе и навсегда. И вот, сотни лет спустя семейные узы оказались разрушены. Время, трагедия и жажда власти отдалили членов Древнейшего семейства друг от друга. Когда Клаус Майклсон, древнейший гибрид вампира и вервульфа, получает загадочное предупреждение о зреющем против него во Французском квартале Нового Орлеана заговоре, он возвращается в город, который когда-то помогала строить его семья. На вопросы Клауса, вероятно, сможет ответить его бывший протеже Марсель, жестокий и харизматичный вампир, полностью подчинивший своей воле всех людей и сверхъестественных жителей Нового Орлеана. В надежде помочь брату обрести искупление Элайджа следует за Клаусом в Новый Орлеан. Вскоре он обнаруживает, что в поисках информации о своей семье во Французский квартал приезжает и тут же оказывается в руках могущественной ведьмы Софи оборотень Хейли. Пока Марсель отдаёт приказы верноподданным и наслаждается безграничной властью, напряжение между сверхъестественными группировками приближается к точке кипения. Для Клауса подчиниться воле могущественного протеже — немыслимо, и он клянётся вернуть себе обратно то, что однажды принадлежало ему: власть, город, семью. В ожидании решения, которое должна принять Ребекка, покинуть или нет Мистик Фоллс ради братьев и Нового Орлеана, Клаус и Элайджа создают хрупкий альянс с ведьмами, дабы быть уверенными, что Новым Орлеаном вновь будут править ДРЕВНЕЙШИЕ.

Страна: США
Студия: Bonanza Productions, My So-Called Company, Alloy Entertainment
Продолжительность: 21 x ~ 00:43:00
Перевод: Профессиональный (многоголосый, закадровый) [LostFilm]
Файл
Формат: MP4
Качество: WEB-DLRip | КПК
Видео: MPEG-4 AVC (x264), 640x360, ~500 kbps, 23.976 fps
Аудио: AAC LC, 48.0 KHz, 2 ch, 128 Kbps
Субтитры: Нет
Семпл

Complete name : E:KinoDrevnie.AVC.KPK.GeneralfilmDrevnie.S01.2013-2014.AVC.KPK.LF.GeneralfilmDrevnie.s01e06.2013.AVC.KPK.LF.Generalfilm.mp4
Format : MPEG-4
Format profile : Base Media
Codec ID : isom
File size : 192 MiB
Duration : 42mn 34s
Overall bit rate mode : Variable
Overall bit rate : 630 Kbps
Encoded date : UTC 2014-04-23 11:37:22
Tagged date : UTC 2014-04-23 11:37:22
Video
ID : 1
Format : AVC
Format/Info : Advanced Video Codec
Format profile : Baseline@L4.1
Format settings, CABAC : No
Format settings, ReFrames : 6 frames
Codec ID : avc1
Codec ID/Info : Advanced Video Coding
Duration : 42mn 34s
Bit rate : 500 Kbps
Maximum bit rate : 1 744 Kbps
Width : 640 pixels
Height : 360 pixels
Display aspect ratio : 16:9
Frame rate mode : Constant
Frame rate : 23.976 fps
Color space : YUV
Chroma subsampling : 4:2:0
Bit depth : 8 bits
Scan type : Progressive
Bits/(Pixel*Frame) : 0.091
Stream size : 152 MiB (79%)
Writing library : x264 core 125 r2200 999b753
Encoding settings : cabac=0 / ref=6 / deblock=1:-1:-1 / analyse=0x1:0x111 / me=umh / subme=7 / psy=1 / psy_rd=1.00:0.00 / mixed_ref=0 / me_range=16 / chroma_me=1 / trellis=1 / 8x8dct=0 / cqm=0 / deadzone=21,11 / fast_pskip=0 / chroma_qp_offset=-2 / threads=12 / lookahead_threads=2 / sliced_threads=0 / nr=0 / decimate=1 / interlaced=0 / bluray_compat=0 / constrained_intra=0 / bframes=0 / weightp=0 / keyint=250 / keyint_min=23 / scenecut=40 / intra_refresh=0 / rc_lookahead=60 / rc=2pass / mbtree=1 / bitrate=500 / ratetol=1.0 / qcomp=0.60 / qpmin=0 / qpmax=69 / qpstep=4 / cplxblur=20.0 / qblur=0.5 / ip_ratio=1.40 / aq=1:1.00
Encoded date : UTC 2014-04-23 11:37:22
Tagged date : UTC 2014-04-23 11:37:26
Audio
ID : 2
Format : AAC
Format/Info : Advanced Audio Codec
Format profile : LC
Codec ID : 40
Duration : 42mn 34s
Bit rate mode : Variable
Bit rate : 128 Kbps
Maximum bit rate : 156 Kbps
Channel count : 2 channels
Channel positions : Front: L R
Sampling rate : 48.0 KHz
Compression mode : Lossy
Stream size : 38.9 MiB (20%)
Encoded date : UTC 2014-04-23 11:37:25
Tagged date : UTC 2014-04-23 11:37:26

Релиз от:



   Похожие торренты   Торрент   Размер 
В этой теме нет новых непрочитанных сообщений. Древние / Первородные / The Originals [01х01-21 из 22] (2013-2014) WEB-DLRip от Generalfilm | LostFilm

0 | 2

14.05 ГБ

В этой теме нет новых непрочитанных сообщений. Древние / Первородные / The Originals [S01] (2013-2014) WEB-DLRip от Generalfilm | КПК | LostFilm

59 | 37

4.13 ГБ

В этой теме нет новых непрочитанных сообщений. Древние / Первородные / The Originals [S01] (2013-2014) WEB-DLRip от Generalfilm | LostFilm

30 | 31

14.71 ГБ

В этой теме нет новых непрочитанных сообщений. Древние / Первородные / The Originals [01х01-16] (2013) WEB-DLRip | LostFilm

239 | 961

5.75 ГБ

В этой теме нет новых непрочитанных сообщений. Древние / Первородные / The Originals [01х01-20] (2013) WEB-DLRip | LostFilm

8 | 112

7.31 ГБ

В этой теме нет новых непрочитанных сообщений. Древние / Первородные / The Originals [01х01-17] (2013) WEB-DLRip | LostFilm

103 | 497

6.1 ГБ

В этой теме нет новых непрочитанных сообщений. Древние / Первородные / The Originals [01х01-18] (2013) WEB-DLRip | LostFilm

3 | 96

6.5 ГБ




Вы не можете начинать темы
Вы не можете отвечать на сообщения
Вы не можете редактировать свои сообщения
Вы не можете удалять свои сообщения
Вы не можете добавлять вложения

Перейти:  
Для Мосгорсуда, Роскомнадзора и рекламодателей: mosgorsud-torrent[собачка]yandex.ru
 Вход
ppkBB3cker v.2 © 2008-2014 @ PPK
[ Time : 0.050s | 15 Queries | GZIP : Off ]

cron