img image001 image001 image001 image001 image001 image001 image001 image001 image001 image001 image001 image001 image001 image001 image001

Planets Sun Sun Sun
Статистика раздачи
Автор: PriZraK | Размер: 14.05 ГБ | Добавлен: 17 май 2014
Раздают: 0    Качают: 2
Скачать торрент
Скачать торрент
Описание торрента

СообщениеДобавлено: 17 май 2014 

Информация о фильме
Название: Древние / Первородные
Оригинальное название: The Originals
Год выхода: 2013
Жанр: Ужасы, фэнтези, драма
Режиссер: Брэд Тёрнер
В ролях: Джозеф Морган, Дэниэл Гиллис, Чарльз Майкл Дэвис, Каллард Харрис, Александра Фикен, Даниэль Кэмпбелл, Эка Дарвилл, Клер Холт, Даниэлла Пинеда, Леа Пайпс
О фильме:
Сила — в семье. Семья Древнейших дала зарок тысячу лет назад: они торжественно поклялись держаться друг друга, вместе и навсегда. И вот, сотни лет спустя семейные узы оказались разрушены. Время, трагедия и жажда власти отдалили членов Древнейшего семейства друг от друга. Когда Клаус Майклсон, древнейший гибрид вампира и вервульфа, получает загадочное предупреждение о зреющем против него во Французском квартале Нового Орлеана заговоре, он возвращается в город, который когда-то помогала строить его семья. На вопросы Клауса, вероятно, сможет ответить его бывший протеже Марсель, жестокий и харизматичный вампир, полностью подчинивший своей воле всех людей и сверхъестественных жителей Нового Орлеана. В надежде помочь брату обрести искупление Элайджа следует за Клаусом в Новый Орлеан. Вскоре он обнаруживает, что в поисках информации о своей семье во Французский квартал приезжает и тут же оказывается в руках могущественной ведьмы Софи оборотень Хейли. Пока Марсель отдаёт приказы верноподданным и наслаждается безграничной властью, напряжение между сверхъестественными группировками приближается к точке кипения. Для Клауса подчиниться воле могущественного протеже — немыслимо, и он клянётся вернуть себе обратно то, что однажды принадлежало ему: власть, город, семью. В ожидании решения, которое должна принять Ребекка, покинуть или нет Мистик Фоллс ради братьев и Нового Орлеана, Клаус и Элайджа создают хрупкий альянс с ведьмами, дабы быть уверенными, что Новым Орлеаном вновь будут править ДРЕВНЕЙШИЕ.

Страна: США
Студия: Bonanza Productions, My So-Called Company, Alloy Entertainment
Продолжительность: 21 x ~ 00:43:00
Перевод: Профессиональный (многоголосый, закадровый) [LostFilm]
Файл
Формат: AVI
Качество: WEB-DLRip
Видео: XviD, 720x400, ~1850 kbps, 23.976 fps
Звук: AC3, 48.0 KHz, 2 ch, 384 Kbps
Субтитры: Нет
Семпл

Complete name : E:KinoDrevnie.XviD.GeneralfilmDrevnie.S01.2013-2014.XviD.LF.GeneralfilmDrevnie.s01e14.2014.XviD.LF.Generalfilm.avi
Format : AVI
Format/Info : Audio Video Interleave
File size : 685 MiB
Duration : 42mn 40s
Overall bit rate : 2 244 Kbps
Writing application : VirtualDubMod 1.5.10.3 | www.virtualdub-fr.org || (build 2550/release)
Writing library : VirtualDubMod build 2550/release
Video
ID : 0
Format : MPEG-4 Visual
Format profile : Advanced Simple@L5
Format settings, BVOP : 2
Format settings, QPel : No
Format settings, GMC : No warppoints
Format settings, Matrix : Default (H.263)
Codec ID : XVID
Codec ID/Hint : XviD
Duration : 42mn 40s
Bit rate : 1 851 Kbps
Width : 720 pixels
Height : 400 pixels
Display aspect ratio : 16:9
Frame rate : 23.976 fps
Color space : YUV
Chroma subsampling : 4:2:0
Bit depth : 8 bits
Scan type : Progressive
Compression mode : Lossy
Bits/(Pixel*Frame) : 0.268
Stream size : 565 MiB (82%)
Writing library : XviD 1.2.1 (UTC 2008-12-04)
Audio
ID : 1
Format : AC-3
Format/Info : Audio Coding 3
Mode extension : CM (complete main)
Format settings, Endianness : Big
Codec ID : 2000
Duration : 42mn 40s
Bit rate mode : Constant
Bit rate : 384 Kbps
Channel count : 2 channels
Channel positions : Front: L R
Sampling rate : 48.0 KHz
Bit depth : 16 bits
Compression mode : Lossy
Stream size : 117 MiB (17%)
Alignment : Split accross interleaves
Interleave, duration : 42 ms (1.00 video frame)
Interleave, preload duration : 500 ms

Релиз от:



   Похожие торренты   Торрент   Размер 
В этой теме нет новых непрочитанных сообщений. Древние / Первородные / The Originals [01х01-21 из 22] (2013-2014) WEB-DLRip от Generalfilm | КПК | LostFilm

5 | 2

3.94 ГБ

В этой теме нет новых непрочитанных сообщений. Древние / Первородные / The Originals [S01] (2013-2014) WEB-DLRip от Generalfilm | LostFilm

30 | 31

14.71 ГБ

В этой теме нет новых непрочитанных сообщений. Древние / Первородные / The Originals [S01] (2013-2014) WEB-DLRip от Generalfilm | КПК | LostFilm

59 | 37

4.13 ГБ

В этой теме нет новых непрочитанных сообщений. Древние / Первородные / The Originals [01х01-14] (2013) WEB-DLRip | LostFilm

21 | 97

5.03 ГБ

В этой теме нет новых непрочитанных сообщений. Древние / Первородные / The Originals [01х01-18] (2013) WEB-DLRip | LostFilm

3 | 96

6.5 ГБ

В этой теме нет новых непрочитанных сообщений. Древние / Первородные / The Originals [01х01-13] (2013) WEB-DLRip | LostFilm

383 | 664

4.66 ГБ

В этой теме нет новых непрочитанных сообщений. Древние / Первородные / The Originals [01х01-17] (2013) WEB-DLRip | LostFilm

103 | 497

6.1 ГБ




Вы не можете начинать темы
Вы не можете отвечать на сообщения
Вы не можете редактировать свои сообщения
Вы не можете удалять свои сообщения
Вы не можете добавлять вложения

Перейти:  
Для Мосгорсуда, Роскомнадзора и рекламодателей: mosgorsud-torrent[собачка]yandex.ru
 Вход
ppkBB3cker v.2 © 2008-2014 @ PPK
[ Time : 0.057s | 15 Queries | GZIP : On ]

Торрент трекер RUTOR.IN, Не можете зайти на rutor.org? Какой новый адрес рутор? Какое зеркало рутор? Не работает rutor.org и зеркала? Тогда наш торрент специально для вас. Rutor.in неофициальное зеркало rutor. В случае если у Вас заблокирован rutor или вдруг Вы не можете на него зайти, то Вы без труда сможете скачать бесплатно и без рекламы последние новинки кино, игр, сериалов и прочего у нас, на Rutor.in. Не нужно использовать прокси, чтобы зайти на рутор, достаточно воспользоваться нашим ресурсом. Все новые фильмы, игры, сериалы, книги и музыка за 2013 и 2014 годы через торрент бесплатно. Скачивайте фильмы в хорошем качестве, игры для пк, xbox, playstation без регистрации. У нас вы найдете новые Зарубежные сериалы и Русские сериалы 2013, 2014, 2015 годов. Оставайтесь с нами, качайте любимые фильмы, игры, сериалы, книги и музыку.