img image001 image001 image001 image001 image001 image001 image001 image001 image001 image001 image001 image001 image001 image001 image001

Planets Sun Sun Sun
Статистика раздачи
Автор: PriZraK | Размер: 6.84 ГБ | Добавлен: 17 май 2014
Раздают: 4    Качают: 6
Скачать торрент
Скачать торрент
Описание торрента

СообщениеДобавлено: 17 май 2014 

Информация о фильме
Название: Правительство
Оригинальное название: Borgen
Год выхода: 2011
Жанр: драма
Режиссер: Луиза Фридберг, Йеспер В. Нильсен, Миккель Нёргор
В ролях: Сидсе Бабетт Кнудсен, Биргитта Йорт Сёренсен, Эмиль Поулсен Дам, Фрея Риманн, Сёрен Маллинг, Томас Левин, Йохан Филип Асбек, Бенедикте Хансен, Микаэль Бирккьяр, Андерс Юль
О фильме:
Сюжет сериала рассказывает о политической борьбе и ее последствиях. Главная героиня 40-летняя лидер популистской партии Биргитте Нюборг одерживает победу на политических выборах и обнаруживает, что все ее проблемы только начинаются.
Официальный сайт
Страна: Дания
Студия: DR1
Продолжительность: ~00:58:00 серия
Перевод: Профессиональный (многоголосый, закадровый) [Tелевизионное агентство "Русский Репортаж" по заказу 8 канала]
Файл
Кодек: XviD / AC3
Качество: HDRip
Видео: XviD, 720x320 (2,25:1); 1275 Kbps; 25,000 fps; 0,221 bpp
Звук:
Аудио 1: AC3; 192 Kbps; 48 kHz; 2 ch [Русский Репортаж (русский)]
Аудио 2: AC3; 192 Kbps; 48 kHz; 2 ch [оригинал (датский)]
General
Complete name : D:ВидеоCериалыПравительствоBorgen.s02.8tvBorgen.s02e01.HDRip.Rus.Dan.8tv.avi
Format : AVI
Format/Info : Audio Video Interleave
File size : 700 MiB
Duration : 58mn 30s
Overall bit rate : 1 673 Kbps
Writing application : VirtualDubMod 1.5.10.3 | www.virtualdub-fr.org || (build 2550/release)
Writing library : VirtualDubMod build 2550/release
Video
ID : 0
Format : MPEG-4 Visual
Format profile : Advanced Simple@L5
Format settings, BVOP : 2
Format settings, QPel : No
Format settings, GMC : No warppoints
Format settings, Matrix : Default (MPEG)
Codec ID : XVID
Codec ID/Hint : XviD
Duration : 58mn 30s
Bit rate : 1 275 Kbps
Width : 720 pixels
Height : 320 pixels
Display aspect ratio : 2.25:1
Frame rate : 25.000 fps
Color space : YUV
Chroma subsampling : 4:2:0
Bit depth : 8 bits
Scan type : Progressive
Compression mode : Lossy
Bits/(Pixel*Frame) : 0.221
Stream size : 533 MiB (76%)
Writing library : XviD 1.2.1 (UTC 2008-12-04)
Audio #1
ID : 1
Format : AC-3
Format/Info : Audio Coding 3
Mode extension : CM (complete main)
Format settings, Endianness : Big
Codec ID : 2000
Duration : 58mn 30s
Bit rate mode : Constant
Bit rate : 192 Kbps
Channel(s) : 2 channels
Channel positions : Front: L R
Sampling rate : 48.0 KHz
Bit depth : 16 bits
Compression mode : Lossy
Stream size : 80.3 MiB (11%)
Alignment : Split accross interleaves
Interleave, duration : 40 ms (1.00 video frame)
Interleave, preload duration : 500 ms
Audio #2
ID : 2
Format : AC-3
Format/Info : Audio Coding 3
Mode extension : CM (complete main)
Format settings, Endianness : Big
Codec ID : 2000
Duration : 58mn 30s
Bit rate mode : Constant
Bit rate : 192 Kbps
Channel(s) : 2 channels
Channel positions : Front: L R
Sampling rate : 48.0 KHz
Bit depth : 16 bits
Compression mode : Lossy
Stream size : 80.3 MiB (11%)
Alignment : Split accross interleaves
Interleave, duration : 40 ms (1.00 video frame)
Interleave, preload duration : 500 ms



   Похожие торренты   Торрент   Размер 
В этой теме нет новых непрочитанных сообщений. Правительство / Borgen [S01] (2010) HDRip | P

6 | 5

6.84 ГБ

В этой теме нет новых непрочитанных сообщений. Правительство / Borgen [S03] (2013) HDTV 1080i

28 | 21

26.61 ГБ

В этой теме нет новых непрочитанных сообщений. Правительство / Борген / Borgen [S01] (2010) BDRip | P BaibaKo

0 | 2

8.79 ГБ

В этой теме нет новых непрочитанных сообщений. Владимир Путин угрожает распустить правительство (2013) WEBRip

2 | 1

20.89 МБ

В этой теме нет новых непрочитанных сообщений. Поединки. Правительство США против Рудольфа Абеля [01-02 из 02] (2009) SATRip

63 | 8

1.37 ГБ

В этой теме нет новых непрочитанных сообщений. TME / Правительство звука - Музыка в гармонии с природой. Магический кристалл (2005) FLAC

4 | 2

341.16 МБ

В этой теме нет новых непрочитанных сообщений. Госдеп - 2 с Ксенией Собчак. Каким должно быть новое правительство? [эфир от 29.04] (2012) WEBRip

0 | 1

620.16 МБ




Вы не можете начинать темы
Вы не можете отвечать на сообщения
Вы не можете редактировать свои сообщения
Вы не можете удалять свои сообщения
Вы не можете добавлять вложения

Перейти:  
Для Мосгорсуда, Роскомнадзора и рекламодателей: mosgorsud-torrent[собачка]yandex.ru
 Вход
ppkBB3cker v.2 © 2008-2014 @ PPK
[ Time : 0.053s | 15 Queries | GZIP : Off ]

Торрент трекер RUTOR.IN, Не можете зайти на rutor.org? Какой новый адрес рутор? Какое зеркало рутор? Не работает rutor.org и зеркала? Тогда наш торрент специально для вас. Rutor.in неофициальное зеркало rutor. В случае если у Вас заблокирован rutor или вдруг Вы не можете на него зайти, то Вы без труда сможете скачать бесплатно и без рекламы последние новинки кино, игр, сериалов и прочего у нас, на Rutor.in. Не нужно использовать прокси, чтобы зайти на рутор, достаточно воспользоваться нашим ресурсом. Все новые фильмы, игры, сериалы, книги и музыка за 2013 и 2014 годы через торрент бесплатно. Скачивайте фильмы в хорошем качестве, игры для пк, xbox, playstation без регистрации. У нас вы найдете новые Зарубежные сериалы и Русские сериалы 2013, 2014, 2015 годов. Оставайтесь с нами, качайте любимые фильмы, игры, сериалы, книги и музыку.
cron