img image001 image001 image001 image001 image001 image001 image001 image001 image001 image001 image001 image001 image001 image001 image001

Planets Sun Sun Sun
Статистика раздачи
Автор: PriZraK | Размер: 2.9 ГБ | Добавлен: 16 май 2014
Раздают: 48    Качают: 15
Скачать торрент
Скачать торрент
Описание торрента

СообщениеДобавлено: 16 май 2014 


Страна: Россия / Марс Медиа Энтертейнмент
Жанр: мелодрама, военный, история
Год выпуска: 2013
Продолжительность: ~00:46:00 - серия
Перевод: Не требуется
Cубтитры: нет
Оригинальная аудиодорожка: русский
Режиссер: Александр Франскевич-Лайе
В ролях: Алексей Гуськов, Евгения Брик, Наталия Быстрова, Анна Рыцарева, Ольга Шувалова, Вероника Пляшкевич, Иван Мацкевич, Игорь Денисов, Денис Иванов, Юрий Голайдо
Описание: Для выполнения особо важного задания фронтовик-разведчик капитан Михасев получает под свое командование спецразведгруппу из четырех бойцов, которыми оказываются… юные девушки. Вчерашним школьницам предстоит проникнуть на узел связи вражеской армии и парализовать его работу, обеспечив успех наступательной операции советских войск.

Качество: DVDRip-AVC / DVD9 R5 лицензионный диск от "Марс медиа"
Формат: MKV
Видео: 720x504@1024x504 (2,032:1), 25.000 fps, MPEG-4 AVC ~ 1807 kbps avg, 0.199 bit/pixel
Аудио: 48 kHz, Dolby AC3, 6 ch, 448 kbps, русский
Раздача от:
Общее
Полное имя : Ne.pokiday.menya.2013.O.DVDRip-AVC_[New-Team]_by_avproh\01.mkv
Формат : Matroska
Версия формата : Version 2
Размер файла : 743 Мбайт
Продолжительность : 46 м.
Общий поток : 2255 Кбит/сек
Дата кодирования : UTC 2014-05-14 02:59:10
Программа кодирования : mkvmerge v6.1.0 ('Old Devil') built on Mar 4 2013 09:10:42
Библиотека кодирования : libebml v1.3.0 + libmatroska v1.4.0
Видео
Идентификатор : 1
Формат : AVC
Формат/Информация : Advanced Video Codec
Профиль формата : High@L4.1
Параметр CABAC формата : Да
Параметр ReFrames формата : 8 кадров
Идентификатор кодека : V_MPEG4/ISO/AVC
Продолжительность : 46 м.
Битрейт : 1807 Кбит/сек
Ширина : 720 пикселей
Высота : 504 пикселя
Соотношение сторон : 2,032
Режим частоты кадров : Постоянный
Частота кадров : 25,000 кадров/сек
Цветовое пространство : YUV
Субдискретизация насыщенности : 4:2:0
Битовая глубина : 8 бит
Тип развёртки : Прогрессивная
Бит/(Пиксели*Кадры) : 0.199
Размер потока : 581 Мбайт (78%)
Библиотека кодирования : x264 core 138 r2356 a1d3d17
Настройки программы : cabac=1 / ref=8 / deblock=1:-2:-1 / analyse=0x3:0x113 / me=umh / subme=10 / psy=1 / psy_rd=1.00:0.05 / mixed_ref=1 / me_range=32 / chroma_me=1 / trellis=2 / 8x8dct=1 / cqm=0 / deadzone=21,11 / fast_pskip=0 / chroma_qp_offset=-3 / threads=9 / lookahead_threads=1 / sliced_threads=0 / nr=0 / decimate=0 / interlaced=0 / bluray_compat=0 / constrained_intra=0 / bframes=8 / b_pyramid=2 / b_adapt=2 / b_bias=0 / direct=3 / weightb=1 / open_gop=0 / weightp=2 / keyint=250 / keyint_min=25 / scenecut=40 / intra_refresh=0 / rc=2pass / mbtree=0 / bitrate=1807 / ratetol=1.0 / qcomp=0.60 / qpmin=0 / qpmax=69 / qpstep=4 / cplxblur=20.0 / qblur=0.5 / ip_ratio=1.40 / pb_ratio=1.30 / aq=1:1.00
Default : Да
Forced : Нет
Аудио
Идентификатор : 2
Формат : AC-3
Формат/Информация : Audio Coding 3
Расширение режима : CM (complete main)
Параметр Endianness формата : Big
Идентификатор кодека : A_AC3
Продолжительность : 46 м.
Вид битрейта : Постоянный
Битрейт : 448 Кбит/сек
Каналы : 6 каналов
Расположение каналов : Front: L C R, Side: L R, LFE
Частота : 48,0 КГц
Битовая глубина : 16 бит
Метод сжатия : С потерями
Размер потока : 148 Мбайт (20%)
Default : Да
Forced : Нет



Приводится в ознакомительных целях.
Кинозал: http://screenshotcomparison.com/comparison/74676 недокроп верх-низ не считая звука



   Похожие торренты   Торрент   Размер 
В этой теме нет новых непрочитанных сообщений. Не покидай меня! [01-04 из 04] (2013) DVDRip от New-Team | лицензия

369 | 22

2.9 ГБ

В этой теме нет новых непрочитанных сообщений. Не покидай меня! (2013) DVD9 R5 от New-Team | лицензия

9 | 10

7.2 ГБ

В этой теме нет новых непрочитанных сообщений. Не покидай... (1989) DVDRip

13 | 7

2.05 ГБ

В этой теме нет новых непрочитанных сообщений. Не покидай меня [01-04 из 04] (2013) HDTVRip

375 | 53

2.34 ГБ

В этой теме нет новых непрочитанных сообщений. Не покидай меня [01-04 из 04] (2013) SATRip

153 | 30

2.31 ГБ

В этой теме нет новых непрочитанных сообщений. Не покидай (1989) DVDRip от Киномагия

77 | 15

1.37 ГБ

В этой теме нет новых непрочитанных сообщений. Не покидай меня [01-04 из 04] (2013) WEB-DLRip 720p

324 | 24

3.53 ГБ




Вы не можете начинать темы
Вы не можете отвечать на сообщения
Вы не можете редактировать свои сообщения
Вы не можете удалять свои сообщения
Вы не можете добавлять вложения

Перейти:  
Для Мосгорсуда, Роскомнадзора и рекламодателей: mosgorsud-torrent[собачка]yandex.ru
 Вход
ppkBB3cker v.2 © 2008-2014 @ PPK
[ Time : 0.035s | 15 Queries | GZIP : Off ]

cron