img image001 image001 image001 image001 image001 image001 image001 image001 image001 image001 image001 image001 image001 image001 image001

Planets Sun Sun Sun
Статистика раздачи
Автор: PriZraK | Размер: 2.9 ГБ | Добавлен: 17 май 2014
Раздают: 393    Качают: 22
Скачать торрент
Скачать торрент
Описание торрента

СообщениеДобавлено: 17 май 2014 


Страна: Россия / Марс Медиа Энтертейнмент
Жанр: мелодрама, военный, история
Год выпуска: 2013
Продолжительность: ~00:46:00 - серия
Перевод: Не требуется
Cубтитры: нет
Оригинальная аудиодорожка: русский
Режиссер: Александр Франскевич-Лайе
В ролях: Алексей Гуськов, Евгения Брик, Наталия Быстрова, Анна Рыцарева, Ольга Шувалова, Вероника Пляшкевич, Иван Мацкевич, Игорь Денисов, Денис Иванов, Юрий Голайдо
Описание: Для выполнения особо важного задания фронтовик-разведчик капитан Михасев получает под свое командование спецразведгруппу из четырех бойцов, которыми оказываются… юные девушки. Вчерашним школьницам предстоит проникнуть на узел связи вражеской армии и парализовать его работу, обеспечив успех наступательной операции советских войск.

Качество: DVDRip / DVD9 R5 лицензионный диск от "Марс медиа"
Формат: AVI
Видео: 720x352 (2,045:1), 25.000 fps, XviD ~ 1800 kbps avg, 0.284 bit/pixel
Аудио: 48 kHz, Dolby AC3, 6 ch, 448 kbps, русский
Раздача от:
Общее
Полное имя : Ne.pokiday.menya.2013.O.DVDRip_[New-Team]_by_avproh\01.avi
Формат : AVI
Формат/Информация : Audio Video Interleave
Размер файла : 744 Мбайт
Продолжительность : 46 м.
Общий поток : 2257 Кбит/сек
Программа кодирования : VirtualDubMod 1.5.10.3 | www.virtualdub-fr.org || (build 2550/release)
Библиотека кодирования : VirtualDubMod build 2550/release
Видео
Идентификатор : 0
Формат : MPEG-4 Visual
Профиль формата : Advanced Simple@L5
Параметр BVOP формата : 1
Параметр QPel формата : Нет
Параметр GMC формата : Без точки перехода
Параметр матрицы формата : Выборочная
Идентификатор кодека : XVID
Идентификатор кодека/Подсказка : XviD
Продолжительность : 46 м.
Битрейт : 1800 Кбит/сек
Ширина : 720 пикселей
Высота : 352 пикселя
Соотношение сторон : 2,045
Частота кадров : 25,000 кадров/сек
Цветовое пространство : YUV
Субдискретизация насыщенности : 4:2:0
Битовая глубина : 8 бит
Тип развёртки : Прогрессивная
Метод сжатия : С потерями
Бит/(Пиксели*Кадры) : 0.284
Размер потока : 593 Мбайт (80%)
Библиотека кодирования : XviD 73
Аудио
Идентификатор : 1
Формат : AC-3
Формат/Информация : Audio Coding 3
Расширение режима : CM (complete main)
Параметр Endianness формата : Big
Идентификатор кодека : 2000
Продолжительность : 46 м.
Вид битрейта : Постоянный
Битрейт : 448 Кбит/сек
Каналы : 6 каналов
Расположение каналов : Front: L C R, Side: L R, LFE
Частота : 48,0 КГц
Битовая глубина : 16 бит
Метод сжатия : С потерями
Размер потока : 148 Мбайт (20%)
Выравнивание : Разделение по промежуткам
Продолжительность промежутка : 40 мс. (1,00 видеокадр)
Время предзагрузки промежутка : 500 мс.



Приводятся исключительно для тех, кто качает фильмы.
Сравнения с рипами Кинозала:
Пары сравнения брал практически подряд, не выбирая. Привожу сравнение для пользователей, чтобы понимали, чего качают, звук: SATRip - MP3 2ch 128 kbps ( http://i062.radikal.ru/1405/07/07e69d6604fa.jpg ), звук WEB-DLRip - АС3 192 kbps ( http://s020.radikal.ru/i712/1405/93/2cd5868a007a.jpg ), звук HDTVRip - MP3 2ch 128 kbps ( http://s003.radikal.ru/i204/1405/29/b68fc1bbdf71.jpg ). А это звук из данного релиза АС3 5.1ch 448 kbps: http://s019.radikal.ru/i634/1405/16/2ea149ba2d8c.jpg
Satrip:
http://screenshotcomparison.com/comparison/74661 - в большем разрешении
http://screenshotcomparison.com/comparison/74667 - в реальных разрешениях
WEB-DLRip:
http://screenshotcomparison.com/comparison/74669 - в большем разрешении
http://screenshotcomparison.com/comparison/74668 - в реальных разрешениях
HDTVRip:
http://screenshotcomparison.com/comparison/74670 - в реальных разрешениях
Если бы меня спросили, что качать, я бы расставил приоритеты так: DVDRip -> WEB-DLRip-> HDTVRip -> SATRip. Единственный минус WEB-DLRip, не считая звука - это несколько нарушенный аспект.



   Похожие торренты   Торрент   Размер 
В этой теме нет новых непрочитанных сообщений. Не покидай меня! (2013) DVDRip-AVC от New-Team | лицензия

51 | 18

2.9 ГБ

В этой теме нет новых непрочитанных сообщений. Не покидай меня! (2013) DVD9 R5 от New-Team | лицензия

8 | 11

7.2 ГБ

В этой теме нет новых непрочитанных сообщений. Не покидай... (1989) DVDRip

13 | 7

2.05 ГБ

В этой теме нет новых непрочитанных сообщений. Не покидай меня [01-04 из 04] (2013) HDTVRip

375 | 53

2.34 ГБ

В этой теме нет новых непрочитанных сообщений. Не покидай меня [01-04 из 04] (2013) SATRip

153 | 30

2.31 ГБ

В этой теме нет новых непрочитанных сообщений. Не покидай (1989) DVDRip от Киномагия

77 | 15

1.37 ГБ

В этой теме нет новых непрочитанных сообщений. Не покидай меня [01-04 из 04] (2013) WEB-DLRip от GeneralFilm

113 | 15

1.97 ГБ




Вы не можете начинать темы
Вы не можете отвечать на сообщения
Вы не можете редактировать свои сообщения
Вы не можете удалять свои сообщения
Вы не можете добавлять вложения

Перейти:  
Для Мосгорсуда, Роскомнадзора и рекламодателей: mosgorsud-torrent[собачка]yandex.ru
 Вход
ppkBB3cker v.2 © 2008-2014 @ PPK
[ Time : 6.167s | 14 Queries | GZIP : Off ]

Торрент трекер RUTOR.IN, Не можете зайти на rutor.org? Какой новый адрес рутор? Какое зеркало рутор? Не работает rutor.org и зеркала? Тогда наш торрент специально для вас. Rutor.in неофициальное зеркало rutor. В случае если у Вас заблокирован rutor или вдруг Вы не можете на него зайти, то Вы без труда сможете скачать бесплатно и без рекламы последние новинки кино, игр, сериалов и прочего у нас, на Rutor.in. Не нужно использовать прокси, чтобы зайти на рутор, достаточно воспользоваться нашим ресурсом. Все новые фильмы, игры, сериалы, книги и музыка за 2013 и 2014 годы через торрент бесплатно. Скачивайте фильмы в хорошем качестве, игры для пк, xbox, playstation без регистрации. У нас вы найдете новые Зарубежные сериалы и Русские сериалы 2013, 2014, 2015 годов. Оставайтесь с нами, качайте любимые фильмы, игры, сериалы, книги и музыку.