img image001 image001 image001 image001 image001 image001 image001 image001 image001 image001 image001 image001 image001 image001 image001

Planets Sun Sun Sun
Статистика раздачи
Автор: PriZraK | Размер: 17.18 ГБ | Добавлен: 16 май 2014
Раздают: 32    Качают: 21
Скачать торрент
Скачать торрент
Описание торрента

СообщениеДобавлено: 16 май 2014 

Информация о фильме
Название: В поле зрения
Оригинальное название: Person of Interest
Год выхода: 2011
Жанр: фантастика, боевик, триллер, драма, детектив
Режиссер: Ричард Дж. Льюис, Джеффри Дж. Хант, Фред Туа
В ролях: Джеймс Кэвизел, Майкл Эмерсон, Stanislav Shkilnyi, Узиманн, Тараджи П. Хенсон, Кевин Чэпмен, Куртеней Тейлор, Крис Чок, Жермен Кроуфорд, Брайан Д’Арси Джеймс
О фильме:
Мистер Финч — загадочный миллиардер, разработавший компьютерную программу, которая предсказывает будущих жертв преступлений. Финч нанимает Риза — бывшего агента ЦРУ, предполагаемо, мертвого, чтобы помочь остановить эти преступления, используя ресурсы и технику Финча, и навыки и знания Риза.
Официальный сайт
Страна: США
Студия: Bad Robot Productions, Kilter Films, Warner Bros. Television Distribution
Продолжительность: ~ 00:44:00 серия
Перевод: Профессиональный (многоголосый закадровый) Fox
Файл
Кодек: MPEG 2 / MP2
Качество: DVB
Видео: MPEG 2, 720x576@1024x576 (16:9), 25.000 fps, ~2500 kbps (0.234 bit/pixel)
Звук: MP2, 48.0 KHz, 2 ch, 192 Kbps, CBR
General
Complete name : /Person Of Interest Season 1 Fox/Person of Interest s01e01.mpg
Format : MPEG-PS
File size : 802 MiB
Duration : 42mn 0s
Overall bit rate mode : Variable
Overall bit rate : 2 668 Kbps
Video
ID : 224 (0xE0)
Format : MPEG Video
Format version : Version 2
Format profile : Main@Main
Format settings, BVOP : No
Format settings, Matrix : Custom
Format settings, GOP : M=1, N=32
Duration : 42mn 0s
Bit rate mode : Variable
Bit rate : 2 423 Kbps
Maximum bit rate : 15.0 Mbps
Width : 720 pixels
Height : 576 pixels
Display aspect ratio : 16:9
Frame rate : 25.000 fps
Standard : PAL
Color space : YUV
Chroma subsampling : 4:2:0
Bit depth : 8 bits
Scan type : Interlaced
Scan order : Top Field First
Compression mode : Lossy
Bits/(Pixel*Frame) : 0.234
Stream size : 728 MiB (91%)
Audio
ID : 192 (0xC0)
Format : MPEG Audio
Format version : Version 1
Format profile : Layer 2
Duration : 42mn 0s
Bit rate mode : Constant
Bit rate : 192 Kbps
Channel(s) : 2 channels
Sampling rate : 48.0 KHz
Compression mode : Lossy
Delay relative to video : -111ms
Stream size : 57.7 MiB (7%)



   Похожие торренты   Торрент   Размер 
В этой теме нет новых непрочитанных сообщений. В поле зрения / Person of Interest [S02] (2011) DVB | FOX

28 | 9

16.35 ГБ

В этой теме нет новых непрочитанных сообщений. В поле зрения / Person of Interest [S01] (2011) HDTVRip | P NewStudio

35 | 34

11.23 ГБ

В этой теме нет новых непрочитанных сообщений. Подозреваемые / В поле зрения / Person of Interest [S01] (2011) HDRip | LostFilm

112 | 38

11.25 ГБ

В этой теме нет новых непрочитанных сообщений. Подозреваемый / В поле зрения / Person of Interest [S01] (2011) HDTVRip | LostFilm

35 | 17

10.84 ГБ

В этой теме нет новых непрочитанных сообщений. В поле зрения / Person of Interest [S01-04,05х01-11 из 13] (2011-2016) HDTVRip, WEB-DLRip | NewStudio

0 | 2

53.16 ГБ

В этой теме нет новых непрочитанных сообщений. Подозреваемый / В поле зрения / Person of Interest [S01-S02] (2011-2013) HDTVRip-AVC 720p l LostFilm

2 | 8

44.91 ГБ

В этой теме нет новых непрочитанных сообщений. В поле зрения / Person of Interest [S01-04] (2011-2014) HDTVRip 720р, WEB-DL 720p | LostFilm

46 | 33

124.68 ГБ




Вы не можете начинать темы
Вы не можете отвечать на сообщения
Вы не можете редактировать свои сообщения
Вы не можете удалять свои сообщения
Вы не можете добавлять вложения

Перейти:  
Для Мосгорсуда, Роскомнадзора и рекламодателей: mosgorsud-torrent[собачка]yandex.ru
 Вход
ppkBB3cker v.2 © 2008-2014 @ PPK
[ Time : 0.033s | 15 Queries | GZIP : Off ]

cron