img image001 image001 image001 image001 image001 image001 image001 image001 image001 image001 image001 image001 image001 image001 image001

Planets Sun Sun Sun
Статистика раздачи
Автор: PriZraK | Размер: 16.35 ГБ | Добавлен: 17 май 2014
Раздают: 28    Качают: 9
Скачать торрент
Скачать торрент
Описание торрента

СообщениеДобавлено: 17 май 2014 

Информация о фильме
Название: В поле зрения
Оригинальное название: Person of Interest
Год выхода: 2011
Жанр: фантастика, боевик, триллер, драма, детектив
Режиссер: Ричард Дж. Льюис, Джеффри Дж. Хант, Фред Туа
В ролях: Джеймс Кэвизел, Майкл Эмерсон, Stanislav Shkilnyi, Узиманн, Тараджи П. Хенсон, Кевин Чэпмен, Куртеней Тейлор, Крис Чок, Жермен Кроуфорд, Брайан Д’Арси Джеймс
О фильме:
Мистер Финч — загадочный миллиардер, разработавший компьютерную программу, которая предсказывает будущих жертв преступлений. Финч нанимает Риза — бывшего агента ЦРУ, предполагаемо, мертвого, чтобы помочь остановить эти преступления, используя ресурсы и технику Финча, и навыки и знания Риза.
Официальный сайт
Страна: США
Студия: Bad Robot Productions, Kilter Films, Warner Bros. Television Distribution
Продолжительность: ~ 00:44:00 серия
Перевод: Профессиональный (многоголосый закадровый) Fox
Файл
Кодек: MPEG 2 / MP2
Качество: DVB
Видео: MPEG 2, 720x576@1024x576 (16:9), 25.000 fps, ~2500 kbps (0.222 bit/pixel)
Звук: MP2, 48.0 KHz, 2 ch, 192 Kbps, CBR
General
Complete name : /Person Of Interest Season 2 Fox/Person Of Interest s02e01.mpg
Format : MPEG-PS
File size : 758 MiB
Duration : 41mn 39s
Overall bit rate mode : Variable
Overall bit rate : 2 543 Kbps
Video
ID : 224 (0xE0)
Format : MPEG Video
Format version : Version 2
Format profile : Main@Main
Format settings, BVOP : Yes
Format settings, Matrix : Custom
Format settings, GOP : M=3, N=15
Duration : 41mn 38s
Bit rate mode : Variable
Bit rate : 2 301 Kbps
Maximum bit rate : 15.0 Mbps
Width : 720 pixels
Height : 576 pixels
Display aspect ratio : 16:9
Frame rate : 25.000 fps
Standard : PAL
Color space : YUV
Chroma subsampling : 4:2:0
Bit depth : 8 bits
Scan type : Interlaced
Scan order : Top Field First
Compression mode : Lossy
Bits/(Pixel*Frame) : 0.222
Stream size : 685 MiB (90%)
Audio
ID : 192 (0xC0)
Format : MPEG Audio
Format version : Version 1
Format profile : Layer 2
Duration : 41mn 39s
Bit rate mode : Constant
Bit rate : 192 Kbps
Channel(s) : 2 channels
Sampling rate : 48.0 KHz
Compression mode : Lossy
Delay relative to video : -913ms
Stream size : 57.2 MiB (8%)



   Похожие торренты   Торрент   Размер 
В этой теме нет новых непрочитанных сообщений. В поле зрения / Person of Interest [S01] (2011) DVB | FOX

32 | 21

17.18 ГБ

В этой теме нет новых непрочитанных сообщений. В поле зрения / Person of Interest [S01] (2011) HDTVRip | P NewStudio

35 | 34

11.23 ГБ

В этой теме нет новых непрочитанных сообщений. Подозреваемый / В поле зрения / Person of Interest [S01] (2011) HDTVRip | LostFilm

35 | 17

10.84 ГБ

В этой теме нет новых непрочитанных сообщений. Подозреваемые / В поле зрения / Person of Interest [S01] (2011) HDRip | LostFilm

112 | 38

11.25 ГБ

В этой теме нет новых непрочитанных сообщений. В поле зрения / Person of Interest [S01-04,05х01-07 из 13] (2011-2016) HDTVRip, WEB-DLRip | LostFilm

0 | 23

43.89 ГБ

В этой теме нет новых непрочитанных сообщений. В поле зрения / Person of Interest [S01-04,05х01-07 из 13] (2011-2016) HDTVRip, WEB-DLRip | LostFilm

0 | 1

43.23 ГБ

В этой теме нет новых непрочитанных сообщений. Подозреваемый / В поле зрения / Person of Interest [S01-S02] (2011-2013) HDTVRip-AVC 720p l LostFilm

2 | 8

44.91 ГБ




Вы не можете начинать темы
Вы не можете отвечать на сообщения
Вы не можете редактировать свои сообщения
Вы не можете удалять свои сообщения
Вы не можете добавлять вложения

Перейти:  
Для Мосгорсуда, Роскомнадзора и рекламодателей: mosgorsud-torrent[собачка]yandex.ru
 Вход
ppkBB3cker v.2 © 2008-2014 @ PPK
[ Time : 0.102s | 17 Queries | GZIP : Off ]

Торрент трекер RUTOR.IN, Не можете зайти на rutor.org? Какой новый адрес рутор? Какое зеркало рутор? Не работает rutor.org и зеркала? Тогда наш торрент специально для вас. Rutor.in неофициальное зеркало rutor. В случае если у Вас заблокирован rutor или вдруг Вы не можете на него зайти, то Вы без труда сможете скачать бесплатно и без рекламы последние новинки кино, игр, сериалов и прочего у нас, на Rutor.in. Не нужно использовать прокси, чтобы зайти на рутор, достаточно воспользоваться нашим ресурсом. Все новые фильмы, игры, сериалы, книги и музыка за 2013 и 2014 годы через торрент бесплатно. Скачивайте фильмы в хорошем качестве, игры для пк, xbox, playstation без регистрации. У нас вы найдете новые Зарубежные сериалы и Русские сериалы 2013, 2014, 2015 годов. Оставайтесь с нами, качайте любимые фильмы, игры, сериалы, книги и музыку.