img image001 image001 image001 image001 image001 image001 image001 image001 image001 image001 image001 image001 image001 image001 image001 image001
Planets Sun Sun Sun
Статистика раздачи
Автор: Nickolas3434 | Размер: 1.95 ГБ | Добавлен: 25 май 2014
Раздают: 40    Качают: 14
Скачать торрент
Скачать торрент
Описание торрента

СообщениеДобавлено: 25 май 2014 

Информация о фильме
Оригинальное название: Дружба народов
Год выхода: 2014
Жанр: Комедия, ситком
Режиссер: Шабан Муслимов
В ролях: Екатерина Скулкина, Теймураз Тания, Мария Романова, Анна Аршава, Марина Барсукова, Анна Парцева, Анастасия Акатова, Ирина Гавра

О фильме:
О жизни супружеской пары. По сюжету глава семьи лезгин, вот уже лет 20 как, живет в браке со своей русской женой. У них есть сын и дочь.



Страна: Россия
Студия: ТНТ, "Kiss from tne universe"
Продолжительность: 20 х ~ 00:24:00
Перевод: Не требуется

Файл
Качество: WEB-DLRip | КПК
Видео: MPEG-4 AVC (x264), 640x360, ~500 kbps, 25.000 fps
Аудио: AAC LC, 44.1 KHz, 2 ch, 128 Kbps
Субтитры: Нет

Семпл


Complete name : E:KinoDruzhba.Narodov.AVC.KPK.GeneralfilmDruzhba.Narodov.S01.2013.AVC.KPK.GeneralfilmDruzhba.Narodov.s01e09.2013.AVC.KPK.Generalfilm.mp4
Format : MPEG-4
Format profile : Base Media
Codec ID : isom
File size : 106 MiB
Duration : 23mn 33s
Overall bit rate mode : Variable
Overall bit rate : 630 Kbps
Encoded date : UTC 2014-05-10 17:44:40
Tagged date : UTC 2014-05-10 17:44:40

Video
ID : 1
Format : AVC
Format/Info : Advanced Video Codec
Format profile : Baseline@L4.1
Format settings, CABAC : No
Format settings, ReFrames : 6 frames
Codec ID : avc1
Codec ID/Info : Advanced Video Coding
Duration : 23mn 33s
Bit rate : 500 Kbps
Maximum bit rate : 1 599 Kbps
Width : 640 pixels
Height : 360 pixels
Display aspect ratio : 16:9
Frame rate mode : Constant
Frame rate : 25.000 fps
Color space : YUV
Chroma subsampling : 4:2:0
Bit depth : 8 bits
Scan type : Progressive
Bits/(Pixel*Frame) : 0.087
Stream size : 84.2 MiB (79%)
Writing library : x264 core 125 r2200 999b753
Encoding settings : cabac=0 / ref=6 / deblock=1:-1:-1 / analyse=0x1:0x111 / me=umh / subme=7 / psy=1 / psy_rd=1.00:0.00 / mixed_ref=0 / me_range=16 / chroma_me=1 / trellis=1 / 8x8dct=0 / cqm=0 / deadzone=21,11 / fast_pskip=0 / chroma_qp_offset=-2 / threads=12 / lookahead_threads=2 / sliced_threads=0 / nr=0 / decimate=1 / interlaced=0 / bluray_compat=0 / constrained_intra=0 / bframes=0 / weightp=0 / keyint=250 / keyint_min=25 / scenecut=40 / intra_refresh=0 / rc_lookahead=60 / rc=2pass / mbtree=1 / bitrate=500 / ratetol=1.0 / qcomp=0.60 / qpmin=0 / qpmax=69 / qpstep=4 / cplxblur=20.0 / qblur=0.5 / ip_ratio=1.40 / aq=1:1.00
Encoded date : UTC 2014-05-10 17:44:40
Tagged date : UTC 2014-05-10 17:44:43

Audio
ID : 2
Format : AAC
Format/Info : Advanced Audio Codec
Format profile : LC
Codec ID : 40
Duration : 23mn 33s
Bit rate mode : Variable
Bit rate : 128 Kbps
Maximum bit rate : 147 Kbps
Channel count : 2 channels
Channel positions : Front: L R
Sampling rate : 44.1 KHz
Compression mode : Lossy
Stream size : 21.5 MiB (20%)
Encoded date : UTC 2014-05-10 17:44:42
Tagged date : UTC 2014-05-10 17:44:43

Релиз от: Спс за исходник:



   Похожие торренты   Торрент   Размер 
В этой теме нет новых непрочитанных сообщений. Дружба народов [01х01 из 20] (2014) WEB-DLRip

897 | 156

257.86 МБ

В этой теме нет новых непрочитанных сообщений. Дружба народов [01х02 из 20] (2014) WEB-DLRip от Goldenshara

138 | 19

699.89 МБ

В этой теме нет новых непрочитанных сообщений. Дружба народов [01х03 из 20] (2014) WEB-DLRip от Goldenshara

224 | 143

1.03 ГБ

В этой теме нет новых непрочитанных сообщений. Дружба народов [01х01-19 из 23] (2014) WEB-DLRip от Deadmauvlad

728 | 845

6.45 ГБ

В этой теме нет новых непрочитанных сообщений. Дружба народов [01х01-15 из 23] (2014) WEB-DLRip от Deadmauvlad

154 | 168

5.08 ГБ

В этой теме нет новых непрочитанных сообщений. Дружба народов [01х01-13 из 23] (2014) WEB-DLRip от Deadmauvlad

423 | 483

4.39 ГБ

В этой теме нет новых непрочитанных сообщений. Дружба народов [01х01-20 из 20] (2014) WEB-DLRip от Deadmauvlad

131 | 56

6.79 ГБ




Вы не можете начинать темы
Вы не можете отвечать на сообщения
Вы не можете редактировать свои сообщения
Вы не можете удалять свои сообщения
Вы не можете добавлять вложения

Перейти:  
Для Мосгорсуда, Роскомнадзора и рекламодателей: mosgorsud-torrent[собачка]yandex.ru
 Вход
ppkBB3cker v.2 © 2008-2014 @ PPK
[ Time : 0.041s | 16 Queries | GZIP : Off ]

cron