img image001 image001 image001 image001 image001 image001 image001 image001 image001 image001 image001 image001 image001 image001 image001

Planets Sun Sun Sun
Статистика раздачи
Автор: Nickolas3434 | Размер: 3.1 ГБ | Добавлен: 25 май 2014
Раздают: 758    Качают: 129
Скачать торрент
Скачать торрент
Описание торрента

СообщениеДобавлено: 25 май 2014 

«Его правда - его оружие»




Страна: Россия / ДТ Продакшн, Тримира

Жанр: боевик, криминал
Год выпуска: 2012
Продолжительность: ~ 00:51:00 - серия

Перевод: Не требуется
Cубтитры: нет
Оригинальная аудиодорожка: русский

Режиссер: Владимир Епифанцев

В ролях: Владимир Епифанцев, Анастасия Веденская, Сергей Векслер, Денис Яковлев, Инна Хотеенкова, Михаил Горевой, Сергей Фролов, Максим Браматкин, Анна Цуканова, Дмитрий Горевой...

Описание: Отставной майор Андрей Шаманов, после долгих лет службы, учится жить мирной жизнью. Но когда бывшим коллегам требуется помощь, даже счастье с любимой женщиной не способно заставить его отказаться от опасного задания: расследовать причину гибели группы спецназа, проводившей учение в горах, где скрывается группировка контрабандистов. В ходе работы Андрея ждут испытания: преступники похищают его возлюбленную и шантажируют героя, на что опытный военный Шаманов решает ответить штурмом. Удачно спланировав операцию, Андрей находит свою Настю, освобождая вместе с ней еще нескольких заложников. Но главная опасность впереди — преступники не позволят Андрею, а также нескольким свидетелям просто так сбежать с тайной базы…



Качество: DVDRip / DVD9 R5 лицензионный диск от ООО "Активижен"
Формат: AVI

Видео: 720x368 (1,957:1), 25.000 fps, XviD ~ 1792 kbps avg, 0.270 bit/pixel
Аудио: 48 kHz, Dolby AC3, 6 ch, 384 kbps, русский

Раздача от:

Общее
Полное имя : Kremen.Osvobojdenie.2013.O.DVDRip_[New-Team]_by_avproh1.avi
Формат : AVI
Формат/Информация : Audio Video Interleave
Размер файла : 785 Мбайт
Продолжительность : 50 м.
Общий поток : 2185 Кбит/сек
Программа кодирования : VirtualDubModRus 1.5.10.2 (build 2542/release)
Библиотека кодирования : VirtualDubMod build 2542/release

Видео
Идентификатор : 0
Формат : MPEG-4 Visual
Профиль формата : Advanced Simple@L5
Параметр BVOP формата : 1
Параметр QPel формата : Нет
Параметр GMC формата : Без точки перехода
Параметр матрицы формата : Выборочная
Идентификатор кодека : XVID
Идентификатор кодека/Подсказка : XviD
Продолжительность : 50 м.
Битрейт : 1792 Кбит/сек
Ширина : 720 пикселей
Высота : 368 пикселей
Соотношение сторон : 1,957
Частота кадров : 25,000 кадров/сек
Цветовое пространство : YUV
Субдискретизация насыщенности : 4:2:0
Битовая глубина : 8 бит
Тип развёртки : Прогрессивная
Метод сжатия : С потерями
Бит/(Пиксели*Кадры) : 0.270
Размер потока : 644 Мбайт (82%)
Библиотека кодирования : XviD 73

Аудио
Идентификатор : 1
Формат : AC-3
Формат/Информация : Audio Coding 3
Расширение режима : CM (complete main)
Параметр Endianness формата : Big
Идентификатор кодека : 2000
Продолжительность : 50 м.
Вид битрейта : Постоянный
Битрейт : 384 Кбит/сек
Каналы : 6 каналов
Расположение каналов : Front: L C R, Side: L R, LFE
Частота : 48,0 КГц
Битовая глубина : 16 бит
Метод сжатия : С потерями
Размер потока : 138 Мбайт (18%)
Выравнивание : Разделение по промежуткам
Продолжительность промежутка : 40 мс. (1,00 видеокадр)
Время предзагрузки промежутка : 500 мс.



WEB-DLRip аудио: http://screenshotcomparison.com/comparison/75683 - АС3 2.0 против АС3 5.1
WEB-DLRip видео: http://screenshotcomparison.com/comparison/75686 - Картинка WEB-DLRip менее полная



   Похожие торренты   Торрент   Размер 
В этой теме нет новых непрочитанных сообщений. Кремень. Освобождение [01-04 из 04] (2013) DVDRip-AVC от New-Team | лицензия

411 | 73

3.1 ГБ

В этой теме нет новых непрочитанных сообщений. Кремень. Освобождение [01-04 из 04] (2013) DVD9 R5 от New-Team | лицензия

72 | 22

7.8 ГБ

В этой теме нет новых непрочитанных сообщений. Кремень. Освобождение [01-04 из 04] (2013) DVDRip от MAGNAT231 | КПК

290 | 23

798.2 МБ

В этой теме нет новых непрочитанных сообщений. Кремень. Освобождение [01-04 из 04] (2013) DVDRip от MediaClub | КПК

158 | 14

854.77 МБ

В этой теме нет новых непрочитанных сообщений. Кремень. Освобождение [01-04 из 04] (2013) DVB

75 | 19

3.23 ГБ

В этой теме нет новых непрочитанных сообщений. Кремень. Освобождение [01-04 из 04] (2013) SATRip

398 | 70

2.02 ГБ

В этой теме нет новых непрочитанных сообщений. Кремень. Освобождение [01-04 из 04] (2013) WEB-DLRip от Unitracker

258 | 86

2.69 ГБ




Вы не можете начинать темы
Вы не можете отвечать на сообщения
Вы не можете редактировать свои сообщения
Вы не можете удалять свои сообщения
Вы не можете добавлять вложения

Перейти:  
Для Мосгорсуда, Роскомнадзора и рекламодателей: mosgorsud-torrent[собачка]yandex.ru
 Вход
ppkBB3cker v.2 © 2008-2014 @ PPK
[ Time : 0.028s | 15 Queries | GZIP : Off ]

Торрент трекер RUTOR.IN, Не можете зайти на rutor.org? Какой новый адрес рутор? Какое зеркало рутор? Не работает rutor.org и зеркала? Тогда наш торрент специально для вас. Rutor.in неофициальное зеркало rutor. В случае если у Вас заблокирован rutor или вдруг Вы не можете на него зайти, то Вы без труда сможете скачать бесплатно и без рекламы последние новинки кино, игр, сериалов и прочего у нас, на Rutor.in. Не нужно использовать прокси, чтобы зайти на рутор, достаточно воспользоваться нашим ресурсом. Все новые фильмы, игры, сериалы, книги и музыка за 2013 и 2014 годы через торрент бесплатно. Скачивайте фильмы в хорошем качестве, игры для пк, xbox, playstation без регистрации. У нас вы найдете новые Зарубежные сериалы и Русские сериалы 2013, 2014, 2015 годов. Оставайтесь с нами, качайте любимые фильмы, игры, сериалы, книги и музыку.
cron