img image001 image001 image001 image001 image001 image001 image001 image001 image001 image001 image001 image001 image001 image001 image001

Planets Sun Sun Sun
Статистика раздачи
Автор: Nickolas3434 | Размер: 3.1 ГБ | Добавлен: 25 май 2014
Раздают: 411    Качают: 73
Скачать торрент
Скачать торрент
Описание торрента

СообщениеДобавлено: 25 май 2014 

«Его правда - его оружие»




Страна: Россия / ДТ Продакшн, Тримира

Жанр: боевик, криминал
Год выпуска: 2012
Продолжительность: ~ 00:51:00 - серия

Перевод: Не требуется
Cубтитры: нет
Оригинальная аудиодорожка: русский

Режиссер: Владимир Епифанцев

В ролях: Владимир Епифанцев, Анастасия Веденская, Сергей Векслер, Денис Яковлев, Инна Хотеенкова, Михаил Горевой, Сергей Фролов, Максим Браматкин, Анна Цуканова, Дмитрий Горевой...

Описание: Отставной майор Андрей Шаманов, после долгих лет службы, учится жить мирной жизнью. Но когда бывшим коллегам требуется помощь, даже счастье с любимой женщиной не способно заставить его отказаться от опасного задания: расследовать причину гибели группы спецназа, проводившей учение в горах, где скрывается группировка контрабандистов. В ходе работы Андрея ждут испытания: преступники похищают его возлюбленную и шантажируют героя, на что опытный военный Шаманов решает ответить штурмом. Удачно спланировав операцию, Андрей находит свою Настю, освобождая вместе с ней еще нескольких заложников. Но главная опасность впереди — преступники не позволят Андрею, а также нескольким свидетелям просто так сбежать с тайной базы…



Качество: DVDRip-AVC / DVD9 R5 лицензионный диск от ООО "Активижен"
Формат: MKV

Видео: 720x528@1024x528 (1,958:1), 25.000 fps, MPEG-4 AVC ~ 1800 kbps avg, 0.189 bit/pixel
Аудио: 48 kHz, Dolby AC3, 6 ch, 384 kbps, русский

Раздача от:

Общее
Полное имя : Kremen.Osvobojdenie.2013.O.DVDRip-AVC_[New-Team]_by_avproh1.mkv
Формат : Matroska
Версия формата : Version 4 / Version 2
Размер файла : 785 Мбайт
Продолжительность : 50 м.
Общий поток : 2185 Кбит/сек
Дата кодирования : UTC 2014-05-21 08:54:25
Программа кодирования : mkvmerge v6.9.1 ('Blue Panther') 64bit built on Apr 18 2014 18:23:38
Библиотека кодирования : libebml v1.3.0 + libmatroska v1.4.1

Видео
Идентификатор : 1
Формат : AVC
Формат/Информация : Advanced Video Codec
Профиль формата : High@L4.1
Параметр CABAC формата : Да
Параметр ReFrames формата : 8 кадров
Идентификатор кодека : V_MPEG4/ISO/AVC
Продолжительность : 50 м.
Битрейт : 1800 Кбит/сек
Ширина : 720 пикселей
Высота : 528 пикселей
Соотношение сторон : 1,928
Соотношение сторон в оригинале : 1,929
Режим частоты кадров : Постоянный
Частота кадров : 25,000 кадров/сек
Цветовое пространство : YUV
Субдискретизация насыщенности : 4:2:0
Битовая глубина : 8 бит
Тип развёртки : Прогрессивная
Бит/(Пиксели*Кадры) : 0.189
Размер потока : 632 Мбайт (80%)
Библиотека кодирования : x264 core 138 r2356 a1d3d17
Настройки программы : cabac=1 / ref=8 / deblock=1:-2:-1 / analyse=0x3:0x113 / me=umh / subme=10 / psy=1 / psy_rd=1.00:0.05 / mixed_ref=1 / me_range=32 / chroma_me=1 / trellis=2 / 8x8dct=1 / cqm=0 / deadzone=21,11 / fast_pskip=0 / chroma_qp_offset=-3 / threads=9 / lookahead_threads=1 / sliced_threads=0 / nr=0 / decimate=0 / interlaced=0 / bluray_compat=0 / constrained_intra=0 / bframes=8 / b_pyramid=2 / b_adapt=2 / b_bias=0 / direct=3 / weightb=1 / open_gop=0 / weightp=2 / keyint=250 / keyint_min=25 / scenecut=40 / intra_refresh=0 / rc=2pass / mbtree=0 / bitrate=1800 / ratetol=1.0 / qcomp=0.60 / qpmin=0 / qpmax=69 / qpstep=4 / cplxblur=20.0 / qblur=0.5 / ip_ratio=1.40 / pb_ratio=1.30 / aq=1:1.00
Язык : Russian
Default : Да
Forced : Нет

Аудио
Идентификатор : 2
Формат : AC-3
Формат/Информация : Audio Coding 3
Расширение режима : CM (complete main)
Параметр Endianness формата : Big
Идентификатор кодека : A_AC3
Продолжительность : 50 м.
Вид битрейта : Постоянный
Битрейт : 384 Кбит/сек
Каналы : 6 каналов
Расположение каналов : Front: L C R, Side: L R, LFE
Частота : 48,0 КГц
Битовая глубина : 16 бит
Метод сжатия : С потерями
Размер потока : 138 Мбайт (18%)
Язык : Russian
Default : Да
Forced : Нет



WEB-DLRip-AVC аудио: По спектру звук одинаковый, но - АС3 2.0 против АС3 5.1
WEB-DLRip-AVC видео: http://screenshotcomparison.com/comparison/75693 - Картинка WEB-DLRip-AVC менее полная и сильно нарушен аспект (~ 7.4%)



   Похожие торренты   Торрент   Размер 
В этой теме нет новых непрочитанных сообщений. Кремень. Освобождение [01-04 из 04] (2013) DVDRip от New-Team | лицензия

758 | 129

3.1 ГБ

В этой теме нет новых непрочитанных сообщений. Кремень. Освобождение [01-04 из 04] (2013) DVD9 R5 от New-Team | лицензия

72 | 22

7.8 ГБ

В этой теме нет новых непрочитанных сообщений. Кремень. Освобождение [01-04 из 04] (2013) DVDRip от MediaClub | КПК

158 | 14

854.77 МБ

В этой теме нет новых непрочитанных сообщений. Кремень. Освобождение [01-04 из 04] (2013) DVDRip от MAGNAT231 | КПК

282 | 23

798.2 МБ

В этой теме нет новых непрочитанных сообщений. Кремень. Освобождение [01-04 из 04] (2013) DVB

75 | 19

3.23 ГБ

В этой теме нет новых непрочитанных сообщений. Кремень. Освобождение [01-04 из 04] (2013) SATRip

398 | 70

2.02 ГБ

В этой теме нет новых непрочитанных сообщений. Кремень. Освобождение [01-04 из 04] (2013) WEB-DL 1080p от ExKinoRay

191 | 74

7.27 ГБ




Вы не можете начинать темы
Вы не можете отвечать на сообщения
Вы не можете редактировать свои сообщения
Вы не можете удалять свои сообщения
Вы не можете добавлять вложения

Перейти:  
Для Мосгорсуда, Роскомнадзора и рекламодателей: mosgorsud-torrent[собачка]yandex.ru
 Вход
ppkBB3cker v.2 © 2008-2014 @ PPK
[ Time : 0.025s | 15 Queries | GZIP : On ]

Торрент трекер RUTOR.IN, Не можете зайти на rutor.org? Какой новый адрес рутор? Какое зеркало рутор? Не работает rutor.org и зеркала? Тогда наш торрент специально для вас. Rutor.in неофициальное зеркало rutor. В случае если у Вас заблокирован rutor или вдруг Вы не можете на него зайти, то Вы без труда сможете скачать бесплатно и без рекламы последние новинки кино, игр, сериалов и прочего у нас, на Rutor.in. Не нужно использовать прокси, чтобы зайти на рутор, достаточно воспользоваться нашим ресурсом. Все новые фильмы, игры, сериалы, книги и музыка за 2013 и 2014 годы через торрент бесплатно. Скачивайте фильмы в хорошем качестве, игры для пк, xbox, playstation без регистрации. У нас вы найдете новые Зарубежные сериалы и Русские сериалы 2013, 2014, 2015 годов. Оставайтесь с нами, качайте любимые фильмы, игры, сериалы, книги и музыку.