img image001 image001 image001 image001 image001 image001 image001 image001 image001 image001 image001 image001 image001 image001 image001

Planets Sun Sun Sun
Статистика раздачи
Автор: Nickolas3434 | Размер: 51.14 ГБ | Добавлен: 25 май 2014
Раздают: 216    Качают: 44
Скачать торрент
Скачать торрент
Описание торрента

СообщениеДобавлено: 25 май 2014 










Элементарно / Elementary









Год выпуска: 2012-2014
Выпущено: США, CBS Television Studios
Жанр: Драма, Криминал, Детектив
Продолжительность: 00:44:00
Сезон: 1-2
Серии: 1-48
Количество серий в сезоне: 48
Озвучка 1 сезона:Дубляж [Первый канал Россия]
Озвучка 2 сезона:Многоголосое профессиональное закадровое озвучание (NewStudio)
Субтитры: НЕТ




Официальный сайт





Режиссер: Джон Дэвид Коулз, Майкл Куэста , John David Coles, Michael Cuesta , Майкл Куэста и др.




В ролях: Джонни Ли Миллер, Люси Лью, Эйдан Куинн, Билл Хек, Уорд Хортон, Мэнни Перез и др.




При новости об очередном Шерлоке Холмсе почувствовал некоторый шок с примесью удовольствия, т. к. при всей моей любви к этому персонажу, кажется невозможным бесконечно плодить экранизации этих книг. Однако ещё остались сценаристы с хорошей фантазией, и этот сериал стоит рассматривать скорее не как экранизацию книг Конан Дойла, а как абсолютно иную историю с теми же фамилиями двух главных персонажей.
Структура серий и отношения между персонажами немедля вызывают у меня ассоциации с моим любимым детективным сериалом «Менталист» от этого же канала, т. к. Холмс Джонни Ли Миллера тоже прибегает к уловкам ради успешного завершения расследования и зачастую в открытую провоцирует людей ради подтверждения своей теории. Однако здесь это происходит в менее предсказуемой форме и иногда даже вызывает удивление.
Персонажей, взятых из оригинальных книг, всего трое. Причём их предыстории совершенно отличаются от оригинала, что добавляет интереса.
Шерлок Холмс в исполнении обаятельного британца Джонни Ли Миллера предстаёт с характером, похожим на оригинальный, но в более безэмоциональной форме, а из хобби он сохранил только скрипку, и то с подачи Ватсон.
Доктор Ватсон неожиданно предстаёт женщиной Джоан Ватсон в исполнении «Ангела Чарли» Люси Лью. Отсюда, никакой военной карьеры нет и в помине, и причины приезда к Холмсу самые что ни на есть деловые. Но в итоге они становятся друзьями, при этом она фактически также играет роль миссис Хадсон, которой здесь попросту нет.
Вместо инспектора Лестрейда фигурирует другой полицейский — Грегсон, который в книгах появляется всего один-два раза. Его отметить нечем, т. к. он просто доверяет Холмсу и спокойно терпит его эксцентричность.
У многих этот сериал, как второй «Шерлок Холмс в 21ом веке», непременно вызывает сравнение с британским «Шерлоком», который, без сомнения, великолепен. Однако я считаю, что их можно сравнивать только в мелких деталях, т. к. дух и сюжеты почти совершенно разные. Единственные вещи, вызвавшие у меня ассоциации с сериалом BBC — клетчатый шарф Холмса, позитивное и терпеливое отношение к Шерлоку главы полиции и время действия.
Таким образом, фанатам книжного Шерлока Холмса и версии Василия Ливанова не рекомендую, а просто любителям хорошего детектива — очень даже рекомендую, т. к. воспринимать «Элементарно» как ещё одного Холмса чрезвычайно трудно.





Качество : WEB-DLRip-AVC 720p
Формат: MPEG-4
Видео кодек: H264
Видео: 3120Кбит/сек,1280х720(16.9),в 25.000кадр/сек,AVC(Baseline@L3.1)(1Ref Frames)
Аудио кодек: AAC
Аудио Russian Dolby Digital 5.1:455Кбит/сек,44.1КГц,6каналов,AAC,(Version4)(LC)





Звуковая дорожка сделана путем наложения чистого голоса озвучивателей на центральный канал оригинальной дорожки. Качество идентично звуковой дорожке.






01. Пилот / Pilot
02. Пока ты спала / While You Were Sleeping
03. Пожиратель детей / Child Predator
04. Крысиные бега / The Rat Race
05. Меньшее зло / Lesser Evils
06. Опасный полет / Flight Risk
07. Единственный выход / One Way To Get Off
08. Длинный запал / The Long Fuse
09. Доконать себя / You Do It to Yourself
10. Левиафан / The Leviathan
11. Копаясь в грязном белье / Dirty Laundry
12. M. / M.
13. Красная команда / The Red Team
14. Гений дедукции / The Deductionist
15. Гигантская пушка, заряженная наркотиками / A Giant Gun, Filled with Drugs
16. Детали / Details
17. Запасной вариант / Possibility Two
18. Острое ощущение дежавю / Déjà Vu All Over Again
19Снежные ангелы / Snow Angels
20Страховка мертвеца / Dead Man's Switch
21Важная веха в истории / A Landmark Story
22Управление риском / Risk Management
23-24 Та самая женщина / Кое-что о героине / The Woman / Heroine)







01. Девятый шаг / Step Nine
02. Решение задачи / Solve for X
03.Всё человечество / We Are Everyone
04Отравленная ручка / Poison Pen
05. Древняя история / Ancient History
06Неестественный союз / An Unnatural Arrangement
07Маркиза / The Marchioness
08Кровь - не вода / Blood Is Thicker
09Под угрозой / On the Line
10Колебания / Tremors
11Внутреннее расследование / Internal Audit
12Исчадие ада / The Diabolical Kind
13Семейные тайны / All in the Family
14Обреченный таксон / Dead Clade Walking
15. Балетный труп / Corpse De Ballet
16. Идеальное решение / The One Percent Solution
17Уши в подарок / Ears to You
18Ищейка раковых клеток / The Hound of the Cancer Cells
19Челюсти Аарона Колвилла / The Many Mouths of Aaron Colville
20В пустоте / No Lack of Void
21Человек с рассеченной губой / The Man with the Twisted Lip
22Да наступит тьма / Paint it Black)
23Искусство в крови / Art in the Blood
24Великий эксперимент / The Grand Experiment







Общее
Полное имя : D:Д Е Т Е К Т И ВElementary_2012_S01_RUS[1canal_Russia]_DD5.1_x264_Nikolai.Baranov_HDTVRip-AVC_(720p)Elementary_2012_S01Е01_RUS[1canal_Russia]_DD5.1_x264_Nikolai.Baranov_HDTVRip-AVC_(720p).mp4
Формат : MPEG-4
Профиль формата : Base Media
Идентификатор кодека : isom
Размер файла : 1,14 Гбайт
Продолжительность : 45 м.
Режим общего битрейта : Переменный
Общий поток : 3579 Кбит/сек
Дата кодирования : UTC 2013-01-11 14:02:52
Дата пометки : UTC 2013-01-11 14:02:52
Программа кодирования : Lavf51.12.1
Видео
Идентификатор : 1
Формат : AVC
Формат/Информация : Advanced Video Codec
Профиль формата : Baseline@L3.1
Параметр CABAC формата : Нет
Параметр ReFrames формата : 1 кадр
Параметр GOP формата : M=1, N=12
Идентификатор кодека : avc1
Идентификатор кодека/Информация : Advanced Video Coding
Продолжительность : 45 м.
Вид битрейта : Переменный
Битрейт : 3120 Кбит/сек
Максимальный битрейт : 4500 Кбит/сек
Ширина : 1280 пикселей
Высота : 720 пикселей
Соотношение сторон : 16:9
Режим частоты кадров : Постоянный
Частота кадров : 25,000 кадров/сек
Частота кадров в оригинале : 24,000 кадра/сек
Цветовое пространство : YUV
Субдискретизация насыщенности : 4:2:0
Битовая глубина : 8 бит
Тип развёртки : Прогрессивная
Бит/(Пиксели*Кадры) : 0.135
Размер потока : 1020 Мбайт (87%)
Дата кодирования : UTC 2013-01-11 14:02:52
Дата пометки : UTC 2013-01-11 14:02:52
Аудио
Идентификатор : 2
Формат : AAC
Формат/Информация : Advanced Audio Codec
Профиль формата : LC
Идентификатор кодека : 40
Продолжительность : 45 м.
Вид битрейта : Переменный
Битрейт : 455 Кбит/сек
Каналы : 6 каналов
Расположение каналов : Front: L C R, Side: L R, LFE
Частота : 44,1 КГц
Метод сжатия : С потерями
Размер потока : 149 Мбайт (13%)
Дата кодирования : UTC 2013-01-11 14:02:52
Дата пометки : UTC 2013-01-11 14:02:52






al
Полное имя : D:Д Е Т Е К Т И ВElementary_2012_-_2013_S01_-_S02_RUS[1canal_Russia+NewStudio.TV]_DD5.1_x264_Nikolai.Baranov_HDTVRip-AVC_(720p)Elementary_2013_S02Е01_RUS[NewStudio.TV]_DD5.1_x264_Nikolai.Baranov_WEB-DLRip-AVC_(720p).mp4
Формат : MPEG-4
Профиль формата : Base Media
Идентификатор кодека : isom
Размер файла : 1.07 GiB
Продолжительность : 43mn 18s
Режим общего битрейта : Variable
Общий поток : 3 546 Kbps
Дата кодирования : UTC 2013-10-06 11:05:33
Дата пометки : UTC 2013-10-06 11:05:33
Программа кодирования : Lavf51.12.1
Video
Идентификатор : 1
Формат : AVC
Формат/Информация : Advanced Video Codec
Профиль формата : Baseline@L3.1
Параметр CABAC формата : No
Параметр ReFrames формата : 1 frame
Параметр GOP формата : M=1, N=12
Идентификатор кодека : avc1
Идентификатор кодека/Информация : Advanced Video Coding
Продолжительность : 43mn 18s
Вид битрейта : Variable
Битрейт : 3 116 Kbps
Максимальный битрейт : 4 500 Kbps
Ширина : 1 280 pixels
Высота : 720 pixels
Соотношение сторон : 16:9
Режим частоты кадров : Constant
Частота кадров : 25.000 fps
Частота кадров в оригинале : 24.000 fps
Цветовое пространство : YUV
Субдискретизация насыщенности : 4:2:0
Битовая глубина : 8 bits
Тип развёртки : Progressive
Бит/(Пиксели*Кадры) : 0.135
Размер потока : 965 MiB (88%)
Язык : English
Дата кодирования : UTC 2013-10-06 11:05:33
Дата пометки : UTC 2013-10-06 11:05:33
Audio
Идентификатор : 2
Формат : AAC
Формат/Информация : Advanced Audio Codec
Профиль формата : LC
Идентификатор кодека : 40
Продолжительность : 43mn 18s
Вид битрейта : Variable
Битрейт : 426 Kbps
Каналы : 6 channels
Расположение каналов : Front: L C R, Side: L R, LFE
Частота : 44.1 KHz
Метод сжатия : Lossy
Размер потока : 132 MiB (12%)
Дата кодирования : UTC 2013-10-06 11:05:33
Дата пометки : UTC 2013-10-06 11:05:33













]






1 сезон




2 сезон




Внимание! Раздача пополняется по мере выхода новых серий!





1. Открыть торрент
2. Снять галки с тех файлов торрента, которые мы не хотим закачивать. Оставляем только на нужных нам файлах (файле).
3. Нажать О.К.
В клиенте utorrent
Инструкция
1) Открыть торрент

2) Снять галки с тех файлов торрента, которые мы не хотим закачивать:
* либо вручную, снимая с каждого файла галку( скрин №1)
* либо, нажав кнопку "Снять метки (Select None)", сняв сразу со всех файлов(скрин №2)
№1

№2

Оставляем только на нужных нам файлах (файле).

3)Нажать О.К











Внимание!! 21.05. 2014. РАЗДАЧА ОБНОВЛЕНА..ФИНАЛ СЕЗОНА.ОБНОВИТЕ ТОРЕНТ ФАЙЛ.ПРИЯТНОГО ПРОСМОТРА .




Релиз от: Nikolai.Baranov





















   Похожие торренты   Торрент   Размер 
В этой теме нет новых непрочитанных сообщений. Элементарно / Elementary [01-03x01--54 из 72] (2012-2014) WEB-DLRip 720p l D l NewStudio

15 | 37

58.19 ГБ

В этой теме нет новых непрочитанных сообщений. Элементарно / Elementary [01-02x01--38 из ХХ] (2012-2014) WEB-DLRip-AVC 720p l D, NewStudio

0 | 2

40.58 ГБ

В этой теме нет новых непрочитанных сообщений. Элементарно / Elementary [01-03x01-52 из 72] (2012-2014) WEB-DLRip 720p l D, NewStudio

3 | 8

55.82 ГБ

В этой теме нет новых непрочитанных сообщений. Элементарно / Elementary [01-02x01-45 из 48] ( 2012-2014) WEB-DLRip-AVC 720p l D,NewStudio

0 | 16

47.96 ГБ

В этой теме нет новых непрочитанных сообщений. Элементарно / Elementary [01-02x01-41 из 48] (2012-2014) WEB-DLRip-AVC 720p l D, NewStudio

6 | 37

43.78 ГБ

В этой теме нет новых непрочитанных сообщений. Элементарно / Elementary [01-02x01-43 из 48] (2012-2014) WEB-DLRip-AVC 720p l D, NewStudio

3 | 19

45.89 ГБ

В этой теме нет новых непрочитанных сообщений. Элементарно / Elementary [01-03x01-50 из 72] (2012-2014) WEB-DLRip 720p l D,NewStudio

117 | 146

53.37 ГБ




Вы не можете начинать темы
Вы не можете отвечать на сообщения
Вы не можете редактировать свои сообщения
Вы не можете удалять свои сообщения
Вы не можете добавлять вложения

Перейти:  
Для Мосгорсуда, Роскомнадзора и рекламодателей: mosgorsud-torrent[собачка]yandex.ru
 Вход
ppkBB3cker v.2 © 2008-2014 @ PPK
[ Time : 0.068s | 15 Queries | GZIP : Off ]

cron