img image001 image001 image001 image001 image001 image001 image001 image001 image001 image001 image001 image001 image001 image001 image001

Planets Sun Sun Sun
Статистика раздачи
Автор: Nickolas3434 | Размер: 5.11 ГБ | Добавлен: 27 май 2014
Раздают: 113    Качают: 79
Скачать торрент
Скачать торрент
Описание торрента

СообщениеДобавлено: 27 май 2014 

Информация о фильме
Название: Росселла
Оригинальное название: Rossella
Год выхода: 2011
Жанр: драма, мелодрама
Режиссер: Джанни Лепре, Кармине Элиа
В ролях: Тони Берторелли, Danilo Brugia, Франческа Каваллин, Джованни Гуиделли, Анна Мелато, Габриэлла Пессион, Тереза Сапонанджело, Фабио Сартор, Джузеппе Зено

О фильме:
Действие фильма разворачивается в Генуе в конце XIX — в начале XX веков. Главная героиня — Росселла Андрэй, красивая молодая девушка из богатой семьи, принадлежащей к высшему обществу Генуи. Романтическая, мятежная, полная любопытства к миру, она живет со своим отцом Пьетро, владельцем машиностроительного завода, и сестрой Паолиной. Мать, Олимпия, умерла при загадочных обстоятельствах, когда девушка была еще ребенком.

Росселла тайно влюбляеться в амбициозного, страстного и бедного журналиста Джулиано Саллустио. И когда наследник семьи немецких промышленников попросил ее руки, Росселла отказывается, раскрывает свою любовь к Джулиано, заявляет о своей свободе, ссориться с отцом. Наконец решает сбежать с любимым человеком. Но на самом ли деле Джулиано тот человек, каким она его считает, или Росселла, из-за слишком большой любви и своей наивности, ошибаеться по поводу его истинной натуры?

Страна: Италия
Студия: Rai Uno
Продолжительность: ~ 00:50:00 серия
Перевод: Профессиональный (многоголосый закадровый) [SET]

Файл
Кодек: XviD / MP3
Качество: SATRip
Видео: MPEG4, XviD, 704x384 (16:9), 25.000 fps, 1 100 Kbps (0.163 bit/pixel)
Звук: MP3, 48.0 KHz, 2 ch, 192 Kbps, CBR

General
Complete name : /Rossella (s02)/Rossella.s02e01.Rus.SATRip.avi
Format : AVI
Format/Info : Audio Video Interleave
File size : 565 MiB
Duration : 1h 0mn
Overall bit rate : 1 302 Kbps
Writing application : VirtualDubMod 1.5.10.3 | www.virtualdub-fr.org || (build 2550/release)
Writing library : VirtualDubMod build 2550/release

Video
ID : 0
Format : MPEG-4 Visual
Format profile : Advanced Simple@L5
Format settings, BVOP : 2
Format settings, QPel : No
Format settings, GMC : No warppoints
Format settings, Matrix : Default (H.263)
Codec ID : XVID
Codec ID/Hint : XviD
Duration : 1h 0mn
Bit rate : 1 100 Kbps
Width : 704 pixels
Height : 384 pixels
Display aspect ratio : 1.85:1
Frame rate : 25.000 fps
Color space : YUV
Chroma subsampling : 4:2:0
Bit depth : 8 bits
Scan type : Progressive
Compression mode : Lossy
Bits/(Pixel*Frame) : 0.163
Stream size : 477 MiB (85%)
Writing library : XviD 65

Audio
ID : 1
Format : MPEG Audio
Format version : Version 1
Format profile : Layer 3
Mode : Joint stereo
Mode extension : MS Stereo
Codec ID : 55
Codec ID/Hint : MP3
Duration : 1h 0mn
Bit rate mode : Constant
Bit rate : 192 Kbps
Channel(s) : 2 channels
Sampling rate : 48.0 KHz
Compression mode : Lossy
Stream size : 83.4 MiB (15%)
Alignment : Aligned on interleaves
Interleave, duration : 40 ms (1.00 video frame)
Interleave, preload duration : 504 ms
Writing library : LAME3.99r
Encoding settings : -m j -V 4 -q 0 -lowpass 18.6 -b 192



   Похожие торренты   Торрент   Размер 
В этой теме нет новых непрочитанных сообщений. Росселла / Rossella [S01] (2011) SATRip | SET

205 | 92

6.72 ГБ

В этой теме нет новых непрочитанных сообщений. Гонка Чемпионов 2011 Кубок наций+Личный зачёт / Race of Champions 2011 (2011) SATRip

0 | 2

3.86 ГБ

В этой теме нет новых непрочитанных сообщений. Формула 1. Сезон 2011. Этап 9 из 19. Гран-При Великобритании 2011. Квалификация (2011) SATRip от tenow

0 | 2

1.05 ГБ

В этой теме нет новых непрочитанных сообщений. Формула 1. Сезон 2011. Этап 12 из 19. Гран-При Бельгии 2011. Квалификация (2011) SATRip от tenow

1 | 2

898.27 МБ

В этой теме нет новых непрочитанных сообщений. Формула 1. Сезон 2011. Этап 8 из 19. Гран-При Европы 2011. Квалификация (2011) SATRip от tenow

0 | 2

1.66 ГБ

В этой теме нет новых непрочитанных сообщений. Формула 1. Сезон 2011. Этап 8 из 19. Гран-При Европы 2011. Квалификация (2011) SATRip от tenow

0 | 2

1.01 ГБ

В этой теме нет новых непрочитанных сообщений. Формула 1. Сезон 2011. Гран-При Малазии 2011 (Сепанг). 2-я практика (2011) SATRip от Кинозал

0 | 2

1.19 ГБ




Вы не можете начинать темы
Вы не можете отвечать на сообщения
Вы не можете редактировать свои сообщения
Вы не можете удалять свои сообщения
Вы не можете добавлять вложения

Перейти:  
Для Мосгорсуда, Роскомнадзора и рекламодателей: mosgorsud-torrent[собачка]yandex.ru
 Вход
ppkBB3cker v.2 © 2008-2014 @ PPK
[ Time : 0.034s | 14 Queries | GZIP : Off ]

Торрент трекер RUTOR.IN, Не можете зайти на rutor.org? Какой новый адрес рутор? Какое зеркало рутор? Не работает rutor.org и зеркала? Тогда наш торрент специально для вас. Rutor.in неофициальное зеркало rutor. В случае если у Вас заблокирован rutor или вдруг Вы не можете на него зайти, то Вы без труда сможете скачать бесплатно и без рекламы последние новинки кино, игр, сериалов и прочего у нас, на Rutor.in. Не нужно использовать прокси, чтобы зайти на рутор, достаточно воспользоваться нашим ресурсом. Все новые фильмы, игры, сериалы, книги и музыка за 2013 и 2014 годы через торрент бесплатно. Скачивайте фильмы в хорошем качестве, игры для пк, xbox, playstation без регистрации. У нас вы найдете новые Зарубежные сериалы и Русские сериалы 2013, 2014, 2015 годов. Оставайтесь с нами, качайте любимые фильмы, игры, сериалы, книги и музыку.