img image001 image001 image001 image001 image001 image001 image001 image001 image001 image001 image001 image001 image001 image001 image001

Planets Sun Sun Sun
Статистика раздачи
Автор: Nickolas3434 | Размер: 2.15 ГБ | Добавлен: 28 май 2014
Раздают: 249    Качают: 175
Скачать торрент
Скачать торрент
Описание торрента

СообщениеДобавлено: 28 май 2014 

Информация о фильме
Оригинальное название: Бесы
Год выхода: 2014
Жанр: Драма, детектив, экранизация
Режиссер: Владимир Хотиненко
В ролях: Максим Матвеев, Антон Шагин, Евгений Ткачук, Мария Шалаева, Игорь Костолевский, Сергей Маковецкий, Иванна Петрова, Владимир Демидов, Мария Луговая, Алексей Кирсанов, Александр Галибин, Вероника Корниенко, Надежда Маркина, Наталия Курдюбова, Вячеслав Чепурченко, Сергей Холмогоров, Фёдор Лавров, Александр Коротков, Александр Марголин, Станислав Беляев, Юлия Акимова, Наташа Швец, Олег Васильков, Юрий Погребничко, Владимир Зайцев

О фильме:
По одноименному роману Ф.М.Достоевского. Конец 19 века. В губернском городе N происходит серия загадочных убийств. На место преступления приезжает столичный следователь Горемыкин. Поиски убийц приводят его к неожиданному выводу - в городе создан революционный кружок.



Страна: Россия
Студия: Нон-стоп продакшн
Продолжительность: 4 х ~ 01:00:00
Перевод: Не требуется

Файл
Кодек: MPEG-4 AVC
Качество: HDTVRip-AVC
Видео: 960х536, 25 fps, AVC MPEG-4 (x264), High@L4.1 ~1100 kbps
Звук: 48 kHz, AC3, 2 ch, 128 kbps



General
Unique ID : 243832916646609720945001699896611952062 (0xB77082F5938DF7B7B06D759580D9D5BE)
Complete name : F:СериалыБесы.(2014).HDTVRip-AVC.[-=DoMiNo=-]1_Besy.mkv
Format : Matroska
Format version : Version 4 / Version 2
File size : 551 MiB
Duration : 59mn 41s
Overall bit rate : 1 291 Kbps
Encoded date : UTC 2014-05-27 15:22:06
Writing application : mkvmerge v6.9.1 ('Blue Panther') 64bit built on Apr 18 2014 18:23:38
Writing library : libebml v1.3.0 + libmatroska v1.4.1

Video
ID : 1
Format : AVC
Format/Info : Advanced Video Codec
Format profile : High@L4.1
Format settings, CABAC : Yes
Format settings, ReFrames : 12 frames
Codec ID : V_MPEG4/ISO/AVC
Duration : 59mn 41s
Bit rate : 1 160 Kbps
Width : 960 pixels
Height : 536 pixels
Display aspect ratio : 16:9
Frame rate mode : Constant
Frame rate : 25.000 fps
Color space : YUV
Chroma subsampling : 4:2:0
Bit depth : 8 bits
Scan type : Progressive
Bits/(Pixel*Frame) : 0.090
Stream size : 485 MiB (88%)
Writing library : x264 core 130 r2273 b3065e6
Encoding settings : cabac=1 / ref=12 / deblock=1:-3:-3 / analyse=0x3:0x133 / me=umh / subme=11 / psy=1 / psy_rd=1.00:0.50 / mixed_ref=1 / me_range=32 / chroma_me=1 / trellis=2 / 8x8dct=1 / cqm=0 / deadzone=21,11 / fast_pskip=0 / chroma_qp_offset=-3 / threads=6 / lookahead_threads=4 / sliced_threads=0 / slices=4 / nr=0 / decimate=1 / interlaced=0 / bluray_compat=0 / constrained_intra=0 / bframes=11 / b_pyramid=2 / b_adapt=2 / b_bias=0 / direct=3 / weightb=1 / open_gop=0 / weightp=2 / keyint=240 / keyint_min=23 / scenecut=40 / intra_refresh=0 / rc_lookahead=150 / rc=2pass / mbtree=1 / bitrate=1160 / ratetol=1.0 / qcomp=0.70 / qpmin=10 / qpmax=51 / qpstep=4 / cplxblur=20.0 / qblur=0.5 / ip_ratio=1.40 / aq=2:1.50
Default : Yes
Forced : No

Audio
ID : 2
Format : AC-3
Format/Info : Audio Coding 3
Mode extension : CM (complete main)
Format settings, Endianness : Big
Codec ID : A_AC3
Duration : 59mn 41s
Bit rate mode : Constant
Bit rate : 128 Kbps
Channel(s) : 2 channels
Channel positions : Front: L R
Sampling rate : 48.0 KHz
Bit depth : 16 bits
Compression mode : Lossy
Stream size : 54.6 MiB (10%)
Default : Yes
Forced : No









   Похожие торренты   Торрент   Размер 
В этой теме нет новых непрочитанных сообщений. Бесы [01-04 из 04] (2014) HDTVRip от MediaClub

782 | 228

3.27 ГБ

В этой теме нет новых непрочитанных сообщений. Бесы [01-04 из 04] (2014) HDTVRip от MediaClub

1771 | 403

3.25 ГБ

В этой теме нет новых непрочитанных сообщений. Бесы [01-04 из 04] (2014) HDTVRip от GeneralFilm

566 | 163

2.81 ГБ

В этой теме нет новых непрочитанных сообщений. Бесы [01-04 из 04] (2014) HDTVRip от GeneralFilm

286 | 39

2.81 ГБ

В этой теме нет новых непрочитанных сообщений. Бесы [01-04 из 04] (2014) HDTVRip 720p от MediaClub

289 | 106

7.39 ГБ

В этой теме нет новых непрочитанных сообщений. Бесы [01-04 из 04] (2014) HDTVRip 720p от MediaClub

214 | 132

7.39 ГБ

В этой теме нет новых непрочитанных сообщений. Бесы [01-04 из 04] (2014) SATRip

2410 | 376

3.26 ГБ




Вы не можете начинать темы
Вы не можете отвечать на сообщения
Вы не можете редактировать свои сообщения
Вы не можете удалять свои сообщения
Вы не можете добавлять вложения

Перейти:  
Для Мосгорсуда, Роскомнадзора и рекламодателей: mosgorsud-torrent[собачка]yandex.ru
 Вход
ppkBB3cker v.2 © 2008-2014 @ PPK
[ Time : 0.962s | 15 Queries | GZIP : Off ]

Торрент трекер RUTOR.IN, Не можете зайти на rutor.org? Какой новый адрес рутор? Какое зеркало рутор? Не работает rutor.org и зеркала? Тогда наш торрент специально для вас. Rutor.in неофициальное зеркало rutor. В случае если у Вас заблокирован rutor или вдруг Вы не можете на него зайти, то Вы без труда сможете скачать бесплатно и без рекламы последние новинки кино, игр, сериалов и прочего у нас, на Rutor.in. Не нужно использовать прокси, чтобы зайти на рутор, достаточно воспользоваться нашим ресурсом. Все новые фильмы, игры, сериалы, книги и музыка за 2013 и 2014 годы через торрент бесплатно. Скачивайте фильмы в хорошем качестве, игры для пк, xbox, playstation без регистрации. У нас вы найдете новые Зарубежные сериалы и Русские сериалы 2013, 2014, 2015 годов. Оставайтесь с нами, качайте любимые фильмы, игры, сериалы, книги и музыку.