img image001 image001 image001 image001 image001 image001 image001 image001 image001 image001 image001 image001 image001 image001 image001

Planets Sun Sun Sun
Статистика раздачи
Автор: Nickolas3434 | Размер: 1.68 ГБ | Добавлен: 30 май 2014
Раздают: 24    Качают: 11
Скачать торрент
Скачать торрент
Описание торрента

СообщениеДобавлено: 30 май 2014 

Информация о фильме
Оригинальное название: Охотники за головами
Год выпуска: 2014
Жанр: Детектив, мелодрама
Выпущено: Россия, «ВВП Альянс», Кинокомпания "Марс Медиа Энтертейнмент"
Режиссер: Иван Шурховецкий
В ролях: Филипп Янковский, Елизавета Боярская, Константин Шелестун, Артур Ваха, Денис Синявский, Борис Хвошнянский, Алексей Барабаш, Виталий Коваленко, Иван Мудров, Артем Шилов, Петар Зекавица, Александр Петров (X), Вячеслав Гасай, Григорий Чабан, Никита Яковлев, Светлана Устинова, Полина Филоненко, Яков Шамшин, Артем Бордовский, Дмитрий Гирев, Михаил Сидаш, Дмитрий Лысенков

О фильме: Тимур и Рита – «охотники за головами». Рита ищет уникальных специалистов, Тимур – опасных преступников. Однажды их пути пересекутся: они одновременно выйдут на след гениального российского химика. Его изобретение – лекарство от рака, наркомафия планирует использовать как наркотик. Героям предстоит сделать непростой моральный выбор и оказаться по одну сторону баррикад.



Файл
Качество: WEB-DLRip (AVC)
Видео: MPEG-4 AVC, ~ 2450 Кбит/с, 1024x576
Аудио: AC3, 2 ch, 192 Кбит/с
Продолжительность: 2 x ~ 00:47:00
Язык: Русский

General
Unique ID : 194898218912616213456700814949203528513 (0x92A008165B9FF67AB855429481CF4B41)
Complete name : C:Ohotniki.za.golovami.2014.WEB-DLRip.AVC.ExKinoRayOhotniki.za.golovami.(01.seriya.iz.08).2014.WEB-DLRip.AVC.ExKinoRay.mkv
Format : Matroska
Format version : Version 2
File size : 905 MiB
Duration : 47mn 3s
Overall bit rate : 2 690 Kbps
Movie name : Ohotniki za golovami from ExKinoRay
Encoded date : UTC 2014-05-28 22:27:22
Writing application : mkvmerge v4.9.1 ('Ich will') built on Jul 11 2011 23:53:15
Writing library : libebml v1.2.1 + libmatroska v1.1.1

Video
ID : 1
Format : AVC
Format/Info : Advanced Video Codec
Format profile : High@L4.1
Format settings, CABAC : Yes
Format settings, ReFrames : 8 frames
Codec ID : V_MPEG4/ISO/AVC
Duration : 47mn 3s
Bit rate : 2 500 Kbps
Width : 1 024 pixels
Height : 576 pixels
Display aspect ratio : 16:9
Frame rate mode : Constant
Frame rate : 25.000 fps
Color space : YUV
Chroma subsampling : 4:2:0
Bit depth : 8 bits
Scan type : Progressive
Bits/(Pixel*Frame) : 0.170
Stream size : 823 MiB (91%)
Title : Enigma
Writing library : x264 core 116 r2044 392e762
Encoding settings : cabac=1 / ref=8 / deblock=1:-2:-2 / analyse=0x3:0x113 / me=umh / subme=9 / psy=1 / psy_rd=1.00:0.20 / mixed_ref=1 / me_range=32 / chroma_me=1 / trellis=2 / 8x8dct=1 / cqm=0 / deadzone=21,11 / fast_pskip=0 / chroma_qp_offset=-3 / threads=12 / sliced_threads=0 / nr=0 / decimate=0 / interlaced=0 / bluray_compat=0 / constrained_intra=0 / bframes=8 / b_pyramid=2 / b_adapt=2 / b_bias=0 / direct=3 / weightb=1 / open_gop=0 / weightp=2 / keyint=250 / keyint_min=25 / scenecut=40 / intra_refresh=0 / rc=2pass / mbtree=0 / bitrate=2500 / ratetol=1.0 / qcomp=0.60 / qpmin=0 / qpmax=69 / qpstep=4 / cplxblur=20.0 / qblur=0.5 / ip_ratio=1.40 / pb_ratio=1.30 / aq=1:1.00
Default : Yes
Forced : No

Audio
ID : 2
Format : AC-3
Format/Info : Audio Coding 3
Mode extension : CM (complete main)
Format settings, Endianness : Big
Codec ID : A_AC3
Duration : 47mn 3s
Bit rate mode : Constant
Bit rate : 192 Kbps
Channel(s) : 2 channels
Channel positions : Front: L R
Sampling rate : 48.0 KHz
Bit depth : 16 bits
Compression mode : Lossy
Stream size : 64.6 MiB (7%)
Language : Russian
Default : Yes
Forced : No






Релиз от:

Автор релиза:



   Похожие торренты   Торрент   Размер 
В этой теме нет новых непрочитанных сообщений. Охотники за головами [01-08 из 08] (2014) WEB-DLRip-AVC от ExKinoRay

89 | 42

6.6 ГБ

В этой теме нет новых непрочитанных сообщений. Охотники за головами [01-06 из 08] (2014) WEB-DLRip-AVC от ExKinoRay

13 | 19

4.94 ГБ

В этой теме нет новых непрочитанных сообщений. Охотники за головами [01-08 из 08] (2014) WEB-DLRip-AVC

101 | 45

4.34 ГБ

В этой теме нет новых непрочитанных сообщений. Охотники за головами [01-08 из 08] (2014) WEB-DLRip

218 | 281

4.31 ГБ

В этой теме нет новых непрочитанных сообщений. Охотники за головами [01-04 из 08] (2014) WEB-DLRip

77 | 39

2.15 ГБ

В этой теме нет новых непрочитанных сообщений. Охотники за головами [01-04 из 08] (2014) WEB-DLRip-AVC

25 | 9

2.15 ГБ

В этой теме нет новых непрочитанных сообщений. Охотники за головами [01-08 из 08] (2014) WEB-DLRip

318 | 95

4.31 ГБ




Вы не можете начинать темы
Вы не можете отвечать на сообщения
Вы не можете редактировать свои сообщения
Вы не можете удалять свои сообщения
Вы не можете добавлять вложения

Перейти:  
Для Мосгорсуда, Роскомнадзора и рекламодателей: mosgorsud-torrent[собачка]yandex.ru
 Вход
ppkBB3cker v.2 © 2008-2014 @ PPK
[ Time : 0.021s | 15 Queries | GZIP : Off ]

Торрент трекер RUTOR.IN, Не можете зайти на rutor.org? Какой новый адрес рутор? Какое зеркало рутор? Не работает rutor.org и зеркала? Тогда наш торрент специально для вас. Rutor.in неофициальное зеркало rutor. В случае если у Вас заблокирован rutor или вдруг Вы не можете на него зайти, то Вы без труда сможете скачать бесплатно и без рекламы последние новинки кино, игр, сериалов и прочего у нас, на Rutor.in. Не нужно использовать прокси, чтобы зайти на рутор, достаточно воспользоваться нашим ресурсом. Все новые фильмы, игры, сериалы, книги и музыка за 2013 и 2014 годы через торрент бесплатно. Скачивайте фильмы в хорошем качестве, игры для пк, xbox, playstation без регистрации. У нас вы найдете новые Зарубежные сериалы и Русские сериалы 2013, 2014, 2015 годов. Оставайтесь с нами, качайте любимые фильмы, игры, сериалы, книги и музыку.