img image001 image001 image001 image001 image001 image001 image001 image001 image001 image001 image001 image001 image001 image001 image001

Planets Sun Sun Sun
Статистика раздачи
Автор: Nickolas3434 | Размер: 4.31 ГБ | Добавлен: 02 июн 2014
Раздают: 968    Качают: 278
Скачать торрент
Скачать торрент
Описание торрента

СообщениеДобавлено: 02 июн 2014 


Страна: Россия
Производство: Star Media
Жанр: Военный
Год выпуска: 2013

Продолжительность: 8 х ~ 00:51:00

Язык: Русский

Режиссер: Сергей Гинзбург

В ролях: Александр Домогаров, Михаил Пореченков, Екатерина Вилкова, Павел Трубинер, Андрей Гусев, Василий Мищенко, Игорь Хрипунов, Ярослав Жалнин, Игорь Арташонов, Владимир Юматов, Азамат Нигманов, Адам Булгучев, Дмитрий Гудочкин, Анатолий Дзиваев, Николай Шрайбер, Дмитрий Лавров (III), Алексей Огурцов, Денис Константинов, Евгений Миллер

Описание: Осень 1941-го года. Немецкие полчища рвутся к Москве. Здесь их сдерживают героические усилия советских воинов и рано наступившая морозная зима. Но положение на фронте очень тяжелое, врага едва удается сдерживать. Руководство рейха решает нанести сокрушительный и коварный удар — убить Сталина. Осуществить операцию поручено специальной группе из полка «Бранденбург-800».


Исходник: DVD5 R9

Тип релиза: DVDRip

Контейнер: AVI

Видео: XviD, ~ 1307 Кбит/с, 720х400
Аудио: АС3, 2 ch, 192 Кбит/с

Общее
Полное имя : D:1АААУБИТЬ СТАЛИНА1 серия.avi
Формат : AVI
Формат/Информация : Audio Video Interleave
Размер файла : 551 Мбайт
Продолжительность : 51 м.
Общий поток : 1508 Кбит/сек
Программа кодирования : VirtualDubMod 1.5.10.3 | www.virtualdub-fr.org || (build 2550/release)
Библиотека кодирования : VirtualDubMod build 2550/release

Видео
Идентификатор : 0
Формат : MPEG-4 Visual
Профиль формата : Advanced Simple@L5
Параметр BVOP формата : 2
Параметр QPel формата : Нет
Параметр GMC формата : Без точки перехода
Параметр матрицы формата : Default (MPEG)
Идентификатор кодека : XVID
Идентификатор кодека/Подсказка : XviD
Продолжительность : 51 м.
Битрейт : 1307 Кбит/сек
Ширина : 720 пикселей
Высота : 400 пикселей
Соотношение сторон : 16:9
Частота кадров : 23,976 кадра/сек
Цветовое пространство : YUV
Субдискретизация насыщенности : 4:2:0
Битовая глубина : 8 бит
Тип развёртки : Прогрессивная
Метод сжатия : С потерями
Бит/(Пиксели*Кадры) : 0.189
Размер потока : 478 Мбайт (87%)
Библиотека кодирования : XviD 1.2.1 (UTC 2008-12-04)

Аудио
Идентификатор : 1
Формат : AC-3
Формат/Информация : Audio Coding 3
Расширение режима : CM (complete main)
Параметр Endianness формата : Big
Идентификатор кодека : 2000
Продолжительность : 51 м.
Вид битрейта : Постоянный
Битрейт : 192 Кбит/сек
Каналы : 2 канала
Расположение каналов : Front: L R
Частота : 48,0 КГц
Битовая глубина : 16 бит
Метод сжатия : С потерями
Размер потока : 70,2 Мбайт (13%)
Выравнивание : Разделение по промежуткам
Продолжительность промежутка : 42 мс. (1,00 видеокадр)
Время предзагрузки промежутка : 500 мс.




Релиз группа:
Автор рипа:



   Похожие торренты   Торрент   Размер 
В этой теме нет новых непрочитанных сообщений. Убить Сталина [01-08 из 08] (2013) WEB-DL 720p от ExKinoRay

81 | 13

5.67 ГБ

В этой теме нет новых непрочитанных сообщений. Убить Сталина [01-08 из 08] (2013) WEB-DL 1080p от Nikolspup

17 | 5

11.95 ГБ

В этой теме нет новых непрочитанных сообщений. Убить Сталина [01-08 из 08] (2013) WEB-DLRip от РиперАМ

61 | 11

4.7 ГБ

В этой теме нет новых непрочитанных сообщений. Убить Сталина [01-08 из 08] (2013) SATRip от GeneralFilm

345 | 54

5.67 ГБ

В этой теме нет новых непрочитанных сообщений. Убить Сталина [01-08 из 08] (2013) WEB-DLRip от Generalfilm

0 | 3

5.71 ГБ

В этой теме нет новых непрочитанных сообщений. Убить Сталина [01-08 из 08] (2013) WEB-DLRip от Generalfilm | КПК

8 | 19

1.8 ГБ

В этой теме нет новых непрочитанных сообщений. Убить Сталина [01-08 из 08] (2013) DVD9 от New-Team | Лицензия

140 | 8

7.91 ГБ




Вы не можете начинать темы
Вы не можете отвечать на сообщения
Вы не можете редактировать свои сообщения
Вы не можете удалять свои сообщения
Вы не можете добавлять вложения

Перейти:  
Для Мосгорсуда, Роскомнадзора и рекламодателей: mosgorsud-torrent[собачка]yandex.ru
 Вход
ppkBB3cker v.2 © 2008-2014 @ PPK
[ Time : 0.032s | 15 Queries | GZIP : Off ]

Торрент трекер RUTOR.IN, Не можете зайти на rutor.org? Какой новый адрес рутор? Какое зеркало рутор? Не работает rutor.org и зеркала? Тогда наш торрент специально для вас. Rutor.in неофициальное зеркало rutor. В случае если у Вас заблокирован rutor или вдруг Вы не можете на него зайти, то Вы без труда сможете скачать бесплатно и без рекламы последние новинки кино, игр, сериалов и прочего у нас, на Rutor.in. Не нужно использовать прокси, чтобы зайти на рутор, достаточно воспользоваться нашим ресурсом. Все новые фильмы, игры, сериалы, книги и музыка за 2013 и 2014 годы через торрент бесплатно. Скачивайте фильмы в хорошем качестве, игры для пк, xbox, playstation без регистрации. У нас вы найдете новые Зарубежные сериалы и Русские сериалы 2013, 2014, 2015 годов. Оставайтесь с нами, качайте любимые фильмы, игры, сериалы, книги и музыку.