img image001 image001 image001 image001 image001 image001 image001 image001 image001 image001 image001 image001 image001 image001 image001

Planets Sun Sun Sun
Статистика раздачи
Автор: Nickolas3434 | Размер: 5.01 ГБ | Добавлен: 04 июн 2014
Раздают: 18    Качают: 7
Скачать торрент
Скачать торрент
Описание торрента

СообщениеДобавлено: 04 июн 2014 

Информация о фильме
Название: ОБЖ 2
Год выхода: 2004-2006
Жанр: Молодёжный, комедия, драма, мелодрама
Режиссер: Ядвига Закржевская
В ролях: Виталина Гусак, Алексей Щуров, Алина Кушнерова, Алексей Бордюг, Полина Беляева, Анна Маликова, Ренат Рахимов

О фильме:
Каждый день – новая история о дружбе, любви, превратностях школьной и околошкольной жизни современных подростков. Непрофессиональные актеры, сценарии, добытые в гуще реальной школьной жизни, достоверность положений и органичность героев - отличительные черты популярного сериала.



Страна: Россия
Студия: ТРК "Петербург"
Продолжительность: 20 х ~ 00:25:00
Перевод: Не требуется

Файл
Кодек: DivX
Качество: TVRip
Видео: DivX, ~ 1200 Кбит/с, 720x464, 25 кадр/с
Звук: Русский, MP3, 48000 Гц, 112 Кбит/с, 2 канала
Субтитры: Нет

Семпл

General
Complete name : OBZ.avi
Format : AVI
Format/Info : Audio Video Interleave
File size : 257 MiB
Duration : 26mn 3s
Overall bit rate : 1 382 Kbps
Writing library : VirtualDub-MPEG2 build 23858/release

Video
ID : 0
Format : MPEG-4 Visual
Format settings, BVOP : 1
Format settings, QPel : No
Format settings, GMC : No warppoints
Format settings, Matrix : Default (H.263)
Muxing mode : Packed bitstream
Codec ID : DX50
Codec ID/Hint : DivX 5
Duration : 26mn 3s
Bit rate : 1 260 Kbps
Width : 720 pixels
Height : 464 pixels
Display aspect ratio : 2.25:1
Frame rate : 25.000 fps
Color space : YUV
Chroma subsampling : 4:2:0
Bit depth : 8 bits
Scan type : Progressive
Compression mode : Lossy
Bits/(Pixel*Frame) : 0.151
Stream size : 235 MiB (91%)
Writing library : DivX 6.8.0 (UTC 2007-12-04)

Audio
ID : 1
Format : MPEG Audio
Format version : Version 1
Format profile : Layer 3
Mode : Joint stereo
Mode extension : MS Stereo
Codec ID : 55
Codec ID/Hint : MP3
Duration : 26mn 3s
Bit rate mode : Constant
Bit rate : 112 Kbps
Channel(s) : 2 channels
Sampling rate : 48.0 KHz
Compression mode : Lossy
Stream size : 20.9 MiB (8%)
Alignment : Split accross interleaves
Interleave, duration : 40 ms (1.00 video frame)
Interleave, preload duration : 500 ms


Релиз от: DeVil_N



   Похожие торренты   Торрент   Размер 
В этой теме нет новых непрочитанных сообщений. Закон Божий (266 серий) (2004-2007) TVRip

8 | 5

30.94 ГБ

В этой теме нет новых непрочитанных сообщений. Как уходили кумиры [247 серий] (2006) TVRip

80 | 91

48.06 ГБ

В этой теме нет новых непрочитанных сообщений. Я не должен был выжить (20 серий из 20) / I Shouldn't Be Alive (2006) TVRip

40 | 35

8.98 ГБ

В этой теме нет новых непрочитанных сообщений. Проект Энциклопедия / Encyclopedia channel [298 серий] (2006-2009) TVRip

3 | 4

14.79 ГБ

В этой теме нет новых непрочитанных сообщений. Красивейшие памятники мировой архитектуры (60 серий из 60) / World's most beautiful sites (2006-2008) TVRip

2 | 3

1.9 ГБ

В этой теме нет новых непрочитанных сообщений. Формула 1. Сезон 2006. Все этапы (2006) TVRip-AVC

7 | 13

12.41 ГБ

В этой теме нет новых непрочитанных сообщений. С точки зрения науки - Дело о планете Земля / National Geographic: Naked Science [65 серий] (2004-2009) TVRip, SATRip

34 | 21

31.96 ГБ




Вы не можете начинать темы
Вы не можете отвечать на сообщения
Вы не можете редактировать свои сообщения
Вы не можете удалять свои сообщения
Вы не можете добавлять вложения

Перейти:  
Для Мосгорсуда, Роскомнадзора и рекламодателей: mosgorsud-torrent[собачка]yandex.ru
 Вход
ppkBB3cker v.2 © 2008-2014 @ PPK
[ Time : 0.080s | 17 Queries | GZIP : Off ]

Торрент трекер RUTOR.IN, Не можете зайти на rutor.org? Какой новый адрес рутор? Какое зеркало рутор? Не работает rutor.org и зеркала? Тогда наш торрент специально для вас. Rutor.in неофициальное зеркало rutor. В случае если у Вас заблокирован rutor или вдруг Вы не можете на него зайти, то Вы без труда сможете скачать бесплатно и без рекламы последние новинки кино, игр, сериалов и прочего у нас, на Rutor.in. Не нужно использовать прокси, чтобы зайти на рутор, достаточно воспользоваться нашим ресурсом. Все новые фильмы, игры, сериалы, книги и музыка за 2013 и 2014 годы через торрент бесплатно. Скачивайте фильмы в хорошем качестве, игры для пк, xbox, playstation без регистрации. У нас вы найдете новые Зарубежные сериалы и Русские сериалы 2013, 2014, 2015 годов. Оставайтесь с нами, качайте любимые фильмы, игры, сериалы, книги и музыку.