img image001 image001 image001 image001 image001 image001 image001 image001 image001 image001 image001 image001 image001 image001 image001

Planets Sun Sun Sun
Статистика раздачи
Автор: Nickolas3434 | Размер: 3.14 ГБ | Добавлен: 04 июн 2014
Раздают: 155    Качают: 47
Скачать торрент
Скачать торрент
Описание торрента

СообщениеДобавлено: 04 июн 2014 


Страна: Россия / Марс Медиа Энтертейнмент

Жанр: военный, драма
Год выпуска: 2013
Продолжительность: ~ 00:50:00 - серия

Перевод: Не требуется
Cубтитры: нет
Оригинальная аудиодорожка: русский

Режиссер: Андрей Прошкин

В ролях: Виталий Хаев, Йоахим Пауль Ассбёк, Лариса Малеванная, Карина Андоленко, Георг Блумрайтер, Петар Зекавица, Анна Уколова, Борис Каморзин, Ольга Лапшина, Михаил Горбатов...

Описание: Эта история о том, как обыкновенный негероический человек становится героем. Преподаватель химии Андрей Петрович Стариков — по прозвищу «Чарли Чаплин» — живет с женой и матерью в старом доме-колодце, в котором, как в ковчеге, собрался пестрый интернационал: украинцы, русские, евреи, татары и армяне. Но приход немцев резко меняет их жизнь. Чтобы спасти своих близких, Чарли вынужден служить переводчиком в фашистском штабе.




Качество: DVDRip / DVD9 R5 - лицензионный диск от "Марс Медиа Энтертейнмент"
Формат: AVI

Видео: 720x400 (16:9), 25.000 fps, XviD ~ 1800 kbps avg, 0.250 bit/pixel
Аудио: 48 kHz, Dolby AC3, 6 ch, 448 kbps, русский

Раздача от:

Общее
Полное имя : Perevodchik.2013.O.DVDRip_[New-Team]_by_avproh\01.avi
Формат : AVI
Формат/Информация : Audio Video Interleave
Размер файла : 805 Мбайт
Продолжительность : 49 м.
Общий поток : 2257 Кбит/сек
Программа кодирования : VirtualDubMod 1.5.10.3 | www.virtualdub-fr.org || (build 2550/release)
Библиотека кодирования : VirtualDubMod build 2550/release

Видео
Идентификатор : 0
Формат : MPEG-4 Visual
Профиль формата : Advanced Simple@L5
Параметр BVOP формата : 1
Параметр QPel формата : Нет
Параметр GMC формата : Без точки перехода
Параметр матрицы формата : Выборочная
Идентификатор кодека : XVID
Идентификатор кодека/Подсказка : XviD
Продолжительность : 49 м.
Битрейт : 1799 Кбит/сек
Ширина : 720 пикселей
Высота : 400 пикселей
Соотношение сторон : 16:9
Частота кадров : 25,000 кадров/сек
Цветовое пространство : YUV
Субдискретизация насыщенности : 4:2:0
Битовая глубина : 8 бит
Тип развёртки : Прогрессивная
Метод сжатия : С потерями
Бит/(Пиксели*Кадры) : 0.250
Размер потока : 642 Мбайт (80%)
Библиотека кодирования : XviD 73

Аудио
Идентификатор : 1
Формат : AC-3
Формат/Информация : Audio Coding 3
Расширение режима : CM (complete main)
Параметр Endianness формата : Big
Идентификатор кодека : 2000
Продолжительность : 49 м.
Вид битрейта : Постоянный
Битрейт : 448 Кбит/сек
Каналы : 6 каналов
Расположение каналов : Front: L C R, Side: L R, LFE
Частота : 48,0 КГц
Битовая глубина : 16 бит
Метод сжатия : С потерями
Размер потока : 160 Мбайт (20%)
Выравнивание : Разделение по промежуткам
Продолжительность промежутка : 40 мс. (1,00 видеокадр)
Время предзагрузки промежутка : 500 мс.





   Похожие торренты   Торрент   Размер 
В этой теме нет новых непрочитанных сообщений. Переводчик [01-04 из 04] (2013) DVDRip-AVC от New-Team | лицензия

215 | 31

3.14 ГБ

В этой теме нет новых непрочитанных сообщений. Переводчик [01-04 из 04] (2013) DVD9 R5 от New-Team | лицензия

21 | 10

7.78 ГБ

В этой теме нет новых непрочитанных сообщений. Переводчик [01-04 из 04] (2013) HDTVRip-AVC

6 | 4

2.74 ГБ

В этой теме нет новых непрочитанных сообщений. Переводчик [01-04 из 04] (2013) WEB-DL 720p от MediaClub

20 | 6

2.76 ГБ

В этой теме нет новых непрочитанных сообщений. Переводчик [01-04 из 04] (2013) HDTVRip 720p от MediaClub

3 | 3

7.39 ГБ

В этой теме нет новых непрочитанных сообщений. Дед 005 (2013) DVDRip-AVC от New-Team | Лицензия

76 | 7

743.11 МБ

В этой теме нет новых непрочитанных сообщений. Дед 005 (2013) DVDRip-AVC от New-Team | Лицензия

225 | 10

1.46 ГБ




Вы не можете начинать темы
Вы не можете отвечать на сообщения
Вы не можете редактировать свои сообщения
Вы не можете удалять свои сообщения
Вы не можете добавлять вложения

Перейти:  
Для Мосгорсуда, Роскомнадзора и рекламодателей: mosgorsud-torrent[собачка]yandex.ru
 Вход
ppkBB3cker v.2 © 2008-2014 @ PPK
[ Time : 0.076s | 15 Queries | GZIP : Off ]

cron