img image001 image001 image001 image001 image001 image001 image001 image001 image001 image001 image001 image001 image001 image001 image001

Planets Sun Sun Sun
Статистика раздачи
Автор: Nickolas3434 | Размер: 7.78 ГБ | Добавлен: 11 июн 2014
Раздают: 75    Качают: 19
Скачать торрент
Скачать торрент
Описание торрента

СообщениеДобавлено: 11 июн 2014 

Информация о фильме
Название: Тайны и ложь
Оригинальное название: Secrets & Lies
Год выхода: 2014
Жанр: триллер, драма
Режиссер: Кейт Дэннис, Питер Сэлмон
В ролях: Мартин Хендерсон, Энтони Хэйес, Диана Гленн, Эдриэнн Пикеринг, Филиппа Култхард, Пайпер Мориссей, Дамон Гамо, Хантер Стрэттон Боланд, Стивен Тэнди

О фильме:
Жизнь маляра Бена Ганделаха меняется, когда однажды утром во время пробежки он находит тело ребёнка в лесу. Это трагическое событие привлечёт пристальное внимание полиции и изменит отношение к нему не только соседей и клиентов, но и членов его собственной семьи. Удастся ли Бену докопаться до истины и раскрыть тайну смерти мальчика, не попавшись в тенёта всё новой лжи?

Страна: Австралия
Студия: Hoodlum Entertainment, Network Ten
Продолжительность: ~ 00:43:00 серия
Перевод: Любительский (двухголосый закадровый) [VictoryFilms]

Файл
Кодек: h.264 / AC3
Качество: HDTVRip 720p
Видео: AVC, 1280x720 (16:9), 25.000 fps, 4 007 Kbps (0.174 bit/pixel)
Звук: AC-3, 48.0 KHz, 2 ch, 224 Kbps, CBR

Семпл

General
Unique ID : 217596509989818383694915354022276323073 (0xA3B3903D7EFAF9F39BA750E401F95701)
Complete name : /Secrets.Lies.s01/Secrets.Lies.s01.e01.VktoryFilms.mkv
Format : Matroska
Format version : Version 4 / Version 2
File size : 1.30 GiB
Duration : 43mn 1s
Overall bit rate : 4 317 Kbps
Encoded date : UTC 2014-03-14 10:10:41
Writing application : mkvmerge v6.3.0 ('You can't stop me!') built on Jul 19 2013 16:27:38
Writing library : Lavf54.63.104

Video
ID : 1
Format : AVC
Format/Info : Advanced Video Codec
Format profile : High@L3.1
Format settings, CABAC : Yes
Format settings, ReFrames : 2 frames
Codec ID : V_MPEG4/ISO/AVC
Duration : 43mn 1s
Bit rate : 4 007 Kbps
Width : 1 280 pixels
Height : 720 pixels
Display aspect ratio : 16:9
Frame rate mode : Variable
Frame rate : 25.000 fps
Color space : YUV
Chroma subsampling : 4:2:0
Bit depth : 8 bits
Scan type : Progressive
Bits/(Pixel*Frame) : 0.174
Stream size : 1.20 GiB (93%)
Default : Yes
Forced : No

Audio
ID : 2
Format : AC-3
Format/Info : Audio Coding 3
Mode extension : CM (complete main)
Format settings, Endianness : Big
Codec ID : A_AC3
Duration : 43mn 1s
Bit rate mode : Constant
Bit rate : 224 Kbps
Channel(s) : 2 channels
Channel positions : Front: L R
Sampling rate : 48.0 KHz
Bit depth : 16 bits
Compression mode : Lossy
Delay relative to video : 24ms
Stream size : 68.9 MiB (5%)
Default : Yes
Forced : No



   Похожие торренты   Торрент   Размер 
В этой теме нет новых непрочитанных сообщений. Тайны и ложь / Secrets & Lies [01x01-02] (2014) HDTVRip 720p | VictoryFilms

20 | 4

2.61 ГБ

В этой теме нет новых непрочитанных сообщений. Тайны и ложь / Secrets & Lies [01x01-05] (2014) HDTVRip 720p | VictoryFilms

52 | 48

6.44 ГБ

В этой теме нет новых непрочитанных сообщений. Тайны и ложь / Secrets & Lies [01x01-04] (2014) HDTVRip 720p | VictoryFilms

68 | 90

5.17 ГБ

В этой теме нет новых непрочитанных сообщений. Тайны и ложь / Secrets & Lies [01x01-03] (2014) HDTVRip 720p | VictoryFilms

14 | 6

3.9 ГБ

В этой теме нет новых непрочитанных сообщений. Тайны и ложь / Secrets & Lies [S01] (2014) HDTVRip | VictoryFilms

74 | 11

3.45 ГБ

В этой теме нет новых непрочитанных сообщений. Тайны и ложь / Secrets and Lies [01x01-04] (2014) HDTVRip | RG.Paravozik

35 | 14

1.96 ГБ

В этой теме нет новых непрочитанных сообщений. Тайны и ложь / Secrets and Lies [01x01-08] (2015) HDTVRip | RG.Paravozik

102 | 64

3.85 ГБ




Вы не можете начинать темы
Вы не можете отвечать на сообщения
Вы не можете редактировать свои сообщения
Вы не можете удалять свои сообщения
Вы не можете добавлять вложения

Перейти:  
Для Мосгорсуда, Роскомнадзора и рекламодателей: mosgorsud-torrent[собачка]yandex.ru
 Вход
ppkBB3cker v.2 © 2008-2014 @ PPK
[ Time : 0.035s | 14 Queries | GZIP : Off ]

Торрент трекер RUTOR.IN, Не можете зайти на rutor.org? Какой новый адрес рутор? Какое зеркало рутор? Не работает rutor.org и зеркала? Тогда наш торрент специально для вас. Rutor.in неофициальное зеркало rutor. В случае если у Вас заблокирован rutor или вдруг Вы не можете на него зайти, то Вы без труда сможете скачать бесплатно и без рекламы последние новинки кино, игр, сериалов и прочего у нас, на Rutor.in. Не нужно использовать прокси, чтобы зайти на рутор, достаточно воспользоваться нашим ресурсом. Все новые фильмы, игры, сериалы, книги и музыка за 2013 и 2014 годы через торрент бесплатно. Скачивайте фильмы в хорошем качестве, игры для пк, xbox, playstation без регистрации. У нас вы найдете новые Зарубежные сериалы и Русские сериалы 2013, 2014, 2015 годов. Оставайтесь с нами, качайте любимые фильмы, игры, сериалы, книги и музыку.