img image001 image001 image001 image001 image001 image001 image001 image001 image001 image001 image001 image001 image001 image001 image001

Planets Sun Sun Sun
Статистика раздачи
Автор: Nickolas3434 | Размер: 5.64 ГБ | Добавлен: 12 июн 2014
Раздают: 365    Качают: 176
Скачать торрент
Скачать торрент
Описание торрента

СообщениеДобавлено: 12 июн 2014 

Информация о фильме

Оригинальное название: Прощай, любимая!
Год выпуска: 2014
Жанр: Детектив
Выпущено: Россия, Кинокомпания "Марс Медиа Энтертейнмент"
Режиссер: Алена Званцова
В ролях: Константин Лавроненко, Полина Агуреева, Александра Урсуляк, Александр Гришин, Евгений Антропов, Роза Хайруллина, Евгения Дмитриева, Глеб Подгородинский, Дмитрий Куличков, Аглая Шиловская, Яна Сексте, Игорь Гордин, Тимур Бадалбейли, Вячеслав Чепурченко, Лидия Байрашевская, Яна Гладких, Арина Нестерова, Юрий Борисов (II), Арина Живова
О фильме: В одном из московских парков находят труп сорокалетней женщины. На первый взгляд, это – смерть от естественных причин, и уголовное дело не возбуждают. Но муж погибшей женщины – банковский аналитик и бывший математик – начинает собственное расследование и приходит к двум выводам. Первый: его жену действительно убили. Второй: у нее был любовник, работающий в полиции. Желая найти виновного в смерти любимой женщины, мужчины объединяют усилия. И вскоре их подозрения падают друг на друга…
Файл

Качество: WEB-DL (720p)
Видео: MPEG-4 AVC, ~ 2000 Кбит/с, 1280x716
Аудио: AC3, 2 ch, 192 Кбит/с
Размер: 5.64 ГБ
Продолжительность: 8 x ~ 00:49:00
Язык: Русский
General
Unique ID : 184515351690392627219748224130779630203 (0x8AD05D35C9584DC7A0DD3E0603EACA7B)
Complete name : Proschay.Lyubimaya.2014.WEB-DL.720p.ExKinoRayProschay.Lyubimaya.(01.seriya).2014.WEB-DL.720p.ExKinoRay.mkv
Format : Matroska
Format version : Version 2
File size : 690 MiB
Duration : 48mn 32s
Overall bit rate : 1 988 Kbps
Encoded date : UTC 2014-06-04 12:43:21
Writing application : mkvmerge v5.8.0 ('No Sleep / Pillow') built on Sep 2 2012 15:37:04
Writing library : libebml v1.2.3 + libmatroska v1.3.0

Video
ID : 1
Format : AVC
Format/Info : Advanced Video Codec
Format profile : High@L3.1
Format settings, CABAC : Yes
Format settings, ReFrames : 3 frames
Codec ID : V_MPEG4/ISO/AVC
Duration : 48mn 32s
Bit rate : 1 800 Kbps
Width : 1 280 pixels
Height : 716 pixels
Display aspect ratio : 16:9
Frame rate mode : Constant
Frame rate : 25.000 fps
Color space : YUV
Chroma subsampling : 4:2:0
Bit depth : 8 bits
Scan type : Progressive
Bits/(Pixel*Frame) : 0.079
Stream size : 610 MiB (88%)
Writing library : x264 core 142 r2389 956c8d8
Encoding settings : cabac=1 / ref=3 / deblock=1:0:0 / analyse=0x3:0x133 / me=umh / subme=7 / psy=1 / psy_rd=1.00:0.00 / mixed_ref=1 / me_range=32 / chroma_me=1 / trellis=2 / 8x8dct=1 / cqm=0 / deadzone=21,11 / fast_pskip=1 / chroma_qp_offset=-2 / threads=12 / lookahead_threads=2 / sliced_threads=0 / nr=0 / decimate=1 / interlaced=0 / bluray_compat=0 / constrained_intra=0 / bframes=0 / weightp=0 / keyint=75 / keyint_min=26 / scenecut=40 / intra_refresh=0 / rc_lookahead=50 / rc=2pass / mbtree=0 / bitrate=1800 / ratetol=1.0 / qcomp=0.20 / qpmin=10 / qpmax=51 / qpstep=4 / cplxblur=20.0 / qblur=0.5 / vbv_maxrate=2000 / vbv_bufsize=2000 / nal_hrd=none / filler=0 / ip_ratio=1.40 / aq=1:1.00
Language : Russian
Default : Yes
Forced : Yes
Color primaries : BT.709
Transfer characteristics : BT.709
Matrix coefficients : BT.709

Audio
ID : 2
Format : AC-3
Format/Info : Audio Coding 3
Mode extension : CM (complete main)
Format settings, Endianness : Big
Codec ID : A_AC3
Duration : 48mn 32s
Bit rate mode : Constant
Bit rate : 192 Kbps
Channel(s) : 2 channels
Channel positions : Front: L R
Sampling rate : 48.0 KHz
Bit depth : 16 bits
Compression mode : Lossy
Stream size : 66.7 MiB (10%)
Language : Russian
Default : Yes
Forced : Yes







Релиз от: Автор релиза: valera76



   Похожие торренты   Торрент   Размер 
В этой теме нет новых непрочитанных сообщений. Прощай, любимая! [01-08 из 08] (2014) WEB-DLRip-AVC от ExKinoRay

74 | 18

5.99 ГБ

В этой теме нет новых непрочитанных сообщений. Прощай, любимая! [01-02 из 08] (2014) WEB-DL 1080p от MediaClub

12 | 25

2.88 ГБ

В этой теме нет новых непрочитанных сообщений. Прощай, любимая! [01-08 из 08] (2014) WEB-DLRip от MediaClub | КПК

59 | 36

1.78 ГБ

В этой теме нет новых непрочитанных сообщений. Прощай, любимая! [01-02 из 08] (2014) SATRip от GeneralFilm

144 | 57

1.08 ГБ

В этой теме нет новых непрочитанных сообщений. Прощай, любимая! [01-08 из 08] (2014) WEB-DL 1080p от MediaClub

83 | 47

11.88 ГБ

В этой теме нет новых непрочитанных сообщений. Прощай, любимая! [01-08 из 08] (2014) WEB-DLRip от RusTorents

917 | 254

4.3 ГБ

В этой теме нет новых непрочитанных сообщений. Прощай, любимая! [01-08 из 08] (2014) SATRip от GeneralFilm

1473 | 306

4.35 ГБ




Вы не можете начинать темы
Вы не можете отвечать на сообщения
Вы не можете редактировать свои сообщения
Вы не можете удалять свои сообщения
Вы не можете добавлять вложения

Перейти:  
Для Мосгорсуда, Роскомнадзора и рекламодателей: mosgorsud-torrent[собачка]yandex.ru
 Вход
ppkBB3cker v.2 © 2008-2014 @ PPK
[ Time : 0.051s | 15 Queries | GZIP : Off ]

Торрент трекер RUTOR.IN, Не можете зайти на rutor.org? Какой новый адрес рутор? Какое зеркало рутор? Не работает rutor.org и зеркала? Тогда наш торрент специально для вас. Rutor.in неофициальное зеркало rutor. В случае если у Вас заблокирован rutor или вдруг Вы не можете на него зайти, то Вы без труда сможете скачать бесплатно и без рекламы последние новинки кино, игр, сериалов и прочего у нас, на Rutor.in. Не нужно использовать прокси, чтобы зайти на рутор, достаточно воспользоваться нашим ресурсом. Все новые фильмы, игры, сериалы, книги и музыка за 2013 и 2014 годы через торрент бесплатно. Скачивайте фильмы в хорошем качестве, игры для пк, xbox, playstation без регистрации. У нас вы найдете новые Зарубежные сериалы и Русские сериалы 2013, 2014, 2015 годов. Оставайтесь с нами, качайте любимые фильмы, игры, сериалы, книги и музыку.