img image001 image001 image001 image001 image001 image001 image001 image001 image001 image001 image001 image001 image001 image001 image001

Planets Sun Sun Sun
Статистика раздачи
Автор: Nickolas3434 | Размер: 5.38 ГБ | Добавлен: 11 июн 2014
Раздают: 248    Качают: 84
Скачать торрент
Скачать торрент
Описание торрента

СообщениеДобавлено: 11 июн 2014 


Страна: Россия / Студия ТГ ФИЛЬМ, РЕН ТВ

Жанр: фэнтези
Год выпуска: 2014
Продолжительность: ~ 00:48:00 - серия

Перевод: Не требуется
Cубтитры: нет
Оригинальная аудиодорожка: русский

Режиссер: Александр Мохов

В ролях: Павел Прилучный, Игорь Жижикин, Александра Флоринская, Елена Ташаева, Александр Мохов, Илья Исаев, Юлия Такшина, Михаил Горевой, Михаил Полицеймако, Сергей Бадюк...

Описание: Ведьмы, оборотни… Наши предки преследовали их и беспощадно уничтожали. Но потомки этих исчезнувших цивилизаций и сейчас обитают в магическом Тайном городе, который много тысяч лет существует на территории Москвы и сокрыт от глаз обычных людей защитными чарами. Но некоторым все же удастся в него заглянуть, и даже — освоиться в Тайном Городе.



:>: Все раздачи сериала


Качество: DVDRip-AVC / 2 x DVD9 R5 - лицензионные диски от "Lizard Cinema Trade"
Формат: MKV

Видео: 720x576@1024x576 (16:9), 25.000 fps, MPEG-4 AVC ~ 1808 kbps avg, 0.174 bit/pixel
Аудио: 48 kHz, Dolby AC3, 2 ch, 192 kbps, русский

Раздача от:

Общее
Полное имя : Taynyi.gorod.2014.O.DVDRip-AVC_[New-Team]_by_avproh\01.mkv
Формат : Matroska
Версия формата : Version 4 / Version 2
Размер файла : 693 Мбайт
Продолжительность : 48 м.
Общий поток : 2000 Кбит/сек
Дата кодирования : UTC 2014-06-10 10:47:21
Программа кодирования : mkvmerge v7.0.0 ('Where We Going') 64bit built on Jun 9 2014 15:16:27
Библиотека кодирования : libebml v1.3.0 + libmatroska v1.4.1
DURATION : 00:48:25.344000000
NUMBER_OF_FRAMES : 90792
NUMBER_OF_BYTES : 69728256
_STATISTICS_WRITING_APP : mkvmerge v7.0.0 ('Where We Going') 64bit built on Jun 9 2014 15:16:27
_STATISTICS_WRITING_DATE_UTC : 2014-06-10 10:47:21
_STATISTICS_TAGS : BPS DURATION NUMBER_OF_FRAMES NUMBER_OF_BYTES

Видео
Идентификатор : 1
Формат : AVC
Формат/Информация : Advanced Video Codec
Профиль формата : High@L4.1
Параметр CABAC формата : Да
Параметр ReFrames формата : 8 кадров
Идентификатор кодека : V_MPEG4/ISO/AVC
Продолжительность : 48 м.
Битрейт : 1808 Кбит/сек
Ширина : 720 пикселей
Высота : 576 пикселей
Соотношение сторон : 16:9
Режим частоты кадров : Постоянный
Частота кадров : 25,000 кадров/сек
Стандарт вещания : PAL
Цветовое пространство : YUV
Субдискретизация насыщенности : 4:2:0
Битовая глубина : 8 бит
Тип развёртки : Прогрессивная
Бит/(Пиксели*Кадры) : 0.174
Размер потока : 613 Мбайт (88%)
Библиотека кодирования : x264 core 138 r2356 a1d3d17
Настройки программы : cabac=1 / ref=8 / deblock=1:-2:-1 / analyse=0x3:0x113 / me=umh / subme=10 / psy=1 / psy_rd=1.00:0.05 / mixed_ref=1 / me_range=32 / chroma_me=1 / trellis=2 / 8x8dct=1 / cqm=0 / deadzone=21,11 / fast_pskip=0 / chroma_qp_offset=-3 / threads=9 / lookahead_threads=1 / sliced_threads=0 / nr=0 / decimate=0 / interlaced=0 / bluray_compat=0 / constrained_intra=0 / bframes=8 / b_pyramid=2 / b_adapt=2 / b_bias=0 / direct=3 / weightb=1 / open_gop=0 / weightp=2 / keyint=250 / keyint_min=25 / scenecut=40 / intra_refresh=0 / rc=2pass / mbtree=0 / bitrate=1808 / ratetol=1.0 / qcomp=0.60 / qpmin=0 / qpmax=69 / qpstep=4 / cplxblur=20.0 / qblur=0.5 / ip_ratio=1.40 / pb_ratio=1.30 / aq=1:1.00
Язык : Russian
Default : Да
Forced : Нет

Аудио
Идентификатор : 2
Формат : AC-3
Формат/Информация : Audio Coding 3
Расширение режима : CM (complete main)
Параметр Endianness формата : Big
Идентификатор кодека : A_AC3
Продолжительность : 48 м.
Вид битрейта : Постоянный
Битрейт : 192 Кбит/сек
Каналы : 2 канала
Расположение каналов : Front: L R
Частота : 48,0 КГц
Битовая глубина : 16 бит
Метод сжатия : С потерями
Размер потока : 66,5 Мбайт (10%)
Язык : Russian
Default : Да
Forced : Нет





   Похожие торренты   Торрент   Размер 
В этой теме нет новых непрочитанных сообщений. Тайный город [01-08 из 08] (2014) DVDRip от New-Team | лицензия

1364 | 630

5.38 ГБ

В этой теме нет новых непрочитанных сообщений. Тайный город [01-08 из 08] (2014) 2 x DVD9 от New-Team | Лицензия

51 | 38

15.3 ГБ

В этой теме нет новых непрочитанных сообщений. Тайный город [S01] (2014) DVDRip от Generalfilm | КПК

93 | 17

1.69 ГБ

В этой теме нет новых непрочитанных сообщений. Зеленый Фонарь: Анимационный сериал / Green Lantern: The Animated Series [01x01-26 из 26] (2011-2013) DVDRip от New-Team | D | лицензия

99 | 130

8.45 ГБ

В этой теме нет новых непрочитанных сообщений. Зеленый Фонарь: Анимационный сериал / Green Lantern: The Animated Series [01x01-26 из 26] (2011-2013) DVDRip от New-Team | D | лицензия

75 | 61

8.45 ГБ

В этой теме нет новых непрочитанных сообщений. Зеленый Фонарь: Анимационный сериал / Green Lantern: The Animated Series [01x01-26 из 26] (2011-2013) DVDRip-AVC от New-Team | D | лицензия

99 | 172

8.4 ГБ

В этой теме нет новых непрочитанных сообщений. Тайный город [S01-S02] (2014) DVBRip

356 | 139

17.87 ГБ




Вы не можете начинать темы
Вы не можете отвечать на сообщения
Вы не можете редактировать свои сообщения
Вы не можете удалять свои сообщения
Вы не можете добавлять вложения

Перейти:  
Для Мосгорсуда, Роскомнадзора и рекламодателей: mosgorsud-torrent[собачка]yandex.ru
 Вход
ppkBB3cker v.2 © 2008-2014 @ PPK
[ Time : 0.568s | 15 Queries | GZIP : Off ]

Торрент трекер RUTOR.IN, Не можете зайти на rutor.org? Какой новый адрес рутор? Какое зеркало рутор? Не работает rutor.org и зеркала? Тогда наш торрент специально для вас. Rutor.in неофициальное зеркало rutor. В случае если у Вас заблокирован rutor или вдруг Вы не можете на него зайти, то Вы без труда сможете скачать бесплатно и без рекламы последние новинки кино, игр, сериалов и прочего у нас, на Rutor.in. Не нужно использовать прокси, чтобы зайти на рутор, достаточно воспользоваться нашим ресурсом. Все новые фильмы, игры, сериалы, книги и музыка за 2013 и 2014 годы через торрент бесплатно. Скачивайте фильмы в хорошем качестве, игры для пк, xbox, playstation без регистрации. У нас вы найдете новые Зарубежные сериалы и Русские сериалы 2013, 2014, 2015 годов. Оставайтесь с нами, качайте любимые фильмы, игры, сериалы, книги и музыку.