img image001 image001 image001 image001 image001 image001 image001 image001 image001 image001 image001 image001 image001 image001 image001

Planets Sun Sun Sun
Статистика раздачи
Автор: Nickolas3434 | Размер: 5.99 ГБ | Добавлен: 11 июн 2014
Раздают: 74    Качают: 18
Скачать торрент
Скачать торрент
Описание торрента

СообщениеДобавлено: 11 июн 2014 

Информация о фильме
Оригинальное название: Прощай, любимая!
Год выпуска: 2014
Жанр: Детектив
Выпущено: Россия, Кинокомпания "Марс Медиа Энтертейнмент"
Режиссер: Алена Званцова
В ролях: Константин Лавроненко, Полина Агуреева, Александра Урсуляк, Александр Гришин, Евгений Антропов, Роза Хайруллина, Евгения Дмитриева, Глеб Подгородинский, Дмитрий Куличков, Аглая Шиловская, Яна Сексте, Игорь Гордин, Тимур Бадалбейли, Вячеслав Чепурченко, Лидия Байрашевская, Яна Гладких, Арина Нестерова, Юрий Борисов (II), Арина Живова

О фильме: В одном из московских парков находят труп сорокалетней женщины. На первый взгляд, это – смерть от естественных причин, и уголовное дело не возбуждают. Но муж погибшей женщины – банковский аналитик и бывший математик – начинает собственное расследование и приходит к двум выводам. Первый: его жену действительно убили. Второй: у нее был любовник, работающий в полиции. Желая найти виновного в смерти любимой женщины, мужчины объединяют усилия. И вскоре их подозрения падают друг на друга…

Файл
Качество: WEB-DLRip (AVC)
Видео: MPEG-4 AVC, ~ 2000 Кбит/с, 1024x572
Аудио: AC3, 2 ch, 192 Кбит/с
Продолжительность: 8 x ~ 00:49:00
Язык: Русский

General
Unique ID : 178484429926800811411359697866129590195 (0x8646D9CF5BCD0A27B734680F438AC7B3)
Complete name : C:Proschay.Lyubimaya.2014.WEB-DLRip.AVC.ExKinoRayProschay.Lyubimaya.(01.seriya).2014.WEB-DLRip.AVC.ExKinoRay.mkv
Format : Matroska
Format version : Version 2
File size : 767 MiB
Duration : 48mn 32s
Overall bit rate : 2 209 Kbps
Movie name : Proschay.Lyubimaya.(01.seriya).2014.WEB-DLRip.AVC from ExKinoRay
Encoded date : UTC 2014-06-09 00:57:56
Writing application : mkvmerge v4.9.1 ('Ich will') built on Jul 11 2011 23:53:15
Writing library : libebml v1.2.1 + libmatroska v1.1.1

Video
ID : 1
Format : AVC
Format/Info : Advanced Video Codec
Format profile : High@L4.1
Format settings, CABAC : Yes
Format settings, ReFrames : 8 frames
Codec ID : V_MPEG4/ISO/AVC
Duration : 48mn 32s
Bit rate : 2 033 Kbps
Width : 1 024 pixels
Height : 572 pixels
Display aspect ratio : 16:9
Frame rate mode : Constant
Frame rate : 25.000 fps
Color space : YUV
Chroma subsampling : 4:2:0
Bit depth : 8 bits
Scan type : Progressive
Bits/(Pixel*Frame) : 0.139
Stream size : 685 MiB (89%)
Title : Enigma
Writing library : x264 core 116 r2044 392e762
Encoding settings : cabac=1 / ref=8 / deblock=1:-2:-1 / analyse=0x3:0x113 / me=umh / subme=9 / psy=1 / psy_rd=1.00:0.20 / mixed_ref=1 / me_range=32 / chroma_me=1 / trellis=2 / 8x8dct=1 / cqm=0 / deadzone=21,11 / fast_pskip=0 / chroma_qp_offset=-3 / threads=12 / sliced_threads=0 / nr=0 / decimate=0 / interlaced=0 / bluray_compat=0 / constrained_intra=0 / bframes=8 / b_pyramid=2 / b_adapt=2 / b_bias=0 / direct=3 / weightb=1 / open_gop=0 / weightp=2 / keyint=250 / keyint_min=25 / scenecut=40 / intra_refresh=0 / rc=2pass / mbtree=0 / bitrate=2033 / ratetol=1.0 / qcomp=0.60 / qpmin=0 / qpmax=69 / qpstep=4 / cplxblur=20.0 / qblur=0.5 / ip_ratio=1.40 / pb_ratio=1.30 / aq=1:1.00
Default : Yes
Forced : No

Audio
ID : 2
Format : AC-3
Format/Info : Audio Coding 3
Mode extension : CM (complete main)
Format settings, Endianness : Big
Codec ID : A_AC3
Duration : 48mn 32s
Bit rate mode : Constant
Bit rate : 192 Kbps
Channel(s) : 2 channels
Channel positions : Front: L R
Sampling rate : 48.0 KHz
Bit depth : 16 bits
Compression mode : Lossy
Stream size : 66.7 MiB (9%)
Language : Russian
Default : Yes
Forced : No





Релиз от:

Автор релиза:



   Похожие торренты   Торрент   Размер 
В этой теме нет новых непрочитанных сообщений. Прощай, любимая! [01-08 из 08] (2014) WEB-DL 720p от ExKinoRay

365 | 176

5.64 ГБ

В этой теме нет новых непрочитанных сообщений. Прощай, любимая! [01-08 из 08] (2014) WEB-DLRip от RusTorents

917 | 254

4.3 ГБ

В этой теме нет новых непрочитанных сообщений. Прощай, любимая! [01-08 из 08] (2014) WEB-DLRip от MediaClub | КПК

59 | 36

1.78 ГБ

В этой теме нет новых непрочитанных сообщений. Прощай, любимая! [01-08 из 08] (2014) SATRip от GeneralFilm

1473 | 306

4.35 ГБ

В этой теме нет новых непрочитанных сообщений. Прощай, любимая! [01-02 из 08] (2014) SATRip от GeneralFilm

144 | 57

1.08 ГБ

В этой теме нет новых непрочитанных сообщений. Прощай, любимая! [01-02 из 08] (2014) WEB-DL 1080p от MediaClub

12 | 25

2.88 ГБ

В этой теме нет новых непрочитанных сообщений. Прощай, любимая! [01-08 из 08] (2014) WEB-DL 1080p от MediaClub

83 | 47

11.88 ГБ




Вы не можете начинать темы
Вы не можете отвечать на сообщения
Вы не можете редактировать свои сообщения
Вы не можете удалять свои сообщения
Вы не можете добавлять вложения

Перейти:  
Для Мосгорсуда, Роскомнадзора и рекламодателей: mosgorsud-torrent[собачка]yandex.ru
 Вход
ppkBB3cker v.2 © 2008-2014 @ PPK
[ Time : 0.055s | 15 Queries | GZIP : Off ]

Торрент трекер RUTOR.IN, Не можете зайти на rutor.org? Какой новый адрес рутор? Какое зеркало рутор? Не работает rutor.org и зеркала? Тогда наш торрент специально для вас. Rutor.in неофициальное зеркало rutor. В случае если у Вас заблокирован rutor или вдруг Вы не можете на него зайти, то Вы без труда сможете скачать бесплатно и без рекламы последние новинки кино, игр, сериалов и прочего у нас, на Rutor.in. Не нужно использовать прокси, чтобы зайти на рутор, достаточно воспользоваться нашим ресурсом. Все новые фильмы, игры, сериалы, книги и музыка за 2013 и 2014 годы через торрент бесплатно. Скачивайте фильмы в хорошем качестве, игры для пк, xbox, playstation без регистрации. У нас вы найдете новые Зарубежные сериалы и Русские сериалы 2013, 2014, 2015 годов. Оставайтесь с нами, качайте любимые фильмы, игры, сериалы, книги и музыку.