img image001 image001 image001 image001 image001 image001 image001 image001 image001 image001 image001 image001 image001 image001 image001

Planets Sun Sun Sun
Статистика раздачи
Автор: Nickolas3434 | Размер: 164.46 МБ | Добавлен: 13 июн 2014
Раздают: 72    Качают: 9
Скачать торрент
Скачать торрент
Описание торрента

СообщениеДобавлено: 13 июн 2014 

Лив и Мэдди / Liv and Maddie
Год выпуска: 2014
Страна: США
Жанр: драма, комедия, семейный
Продолжительность: ~00:25:00 серия
Перевод: Дубляж Disney
Субтитры: нет

Режиссер: Энди Фикмен, Линда Мендоза
Продюссер: Джон Д. Бек, Эдди П. Дельмон, Энди Фикмен, ...
Сценарий: Джон Д. Бек, Сильвия Грин, Рон Харт, ...

Премьера в мире: 19 июля 2013
В ролях: Дав Камерон,Джои Брагг,Tenzing Norgay Trainor,Кали Роча,Бенжамин Кинг,Эмми Бакнер,Shelby Wulfert,Райан МакКэртан,Джессика Гарсиа,Джимми Беллинджер
Роли дублировали Ирина Обрезкова(Лив/Мэдди) ,Елизавета Захарьева

Описание: Сестры-близнецы Лив и Мэдди похожи друга на друга, как две капли воды, но их характеры и интересы совершенно разные. Лив — начинающая певица, которая мечтает покорить музыкальный олимп и стать популярной!

В отличие от своей амбициозной сестры, Мэдди не интересует мир шоу-бизнеса, зато она играет в баскетбол лучше любого мальчишки и демонстрирует незаурядные результаты в учебе. Каждый день девочки попадают в забавные ситуации, которые помогают им стать отличной командой

Доп. информация:
Хочется сказать Большое спасибо Messa-fan за работу над звуком.........
запись звука Deadmauvlad

Качество: HDTVRip
Формат: AVI
Видео кодек: XviD
Аудио кодек: MP3
Видео: 624x336 (1.86:1), 23.976 fps, XviD build 73 ~716 kbps avg, 0.14 bit/pixel
Аудио#1: 48 kHz, MPEG Layer 3, 2 ch, ~128.00 kbps avg [«Канал Disney»]
Аудио#2: 48 kHz, AC3 Dolby Digital, 2/0 (L,R) ch, ~192.00 kbps avg [ENG]
Релиз от: Deadmauvlad



Общее
Полное имя : D:Рипы выкладка [Deadmauvlad]Рипы готовыеLiv.and.Maddie.HDTVRip.Deadmauvlad&Messa-fanliv.and.maddie.s01e01.hdtvrip.Deadmauvlad & Messa-fan.avi
Формат : AVI
Формат/Информация : Audio Video Interleave
Размер файла : 164 Мбайт
Продолжительность : 23 м.
Общий поток : 988 Кбит/сек
Название фильма : liv.and.maddie.s01e01.hdtvrip.Deadmauvlad & Messa-fan
Режиссёр : Reliz Deadmauvlad & Messa-fan
Жанр : Семейный,Комедия
Программа кодирования : VirtualDubMod 1.5.10.3 | www.virtualdub-fr.org || (build 2550/release)
Формат оригинала/Имя : Сериал
Правообладатель : Reliz Deadmauvlad & Messa-fan

Видео
Идентификатор : 0
Формат : MPEG-4 Visual
Профиль формата : Advanced Simple@L5
Параметр BVOP формата : 1
Параметр QPel формата : Нет
Параметр GMC формата : Без точки перехода
Параметр матрицы формата : Выборочная
Идентификатор кодека : XVID
Идентификатор кодека/Подсказка : XviD
Продолжительность : 23 м.
Битрейт : 718 Кбит/сек
Ширина : 624 пикселя
Высота : 336 пикселей
Соотношение сторон : 1,85:1
Частота кадров : 23,976 кадра/сек
Цветовое пространство : YUV
Субдискретизация насыщенности : 4:2:0
Битовая глубина : 8 бит
Тип развёртки : Прогрессивная
Метод сжатия : С потерями
Бит/(Пиксели*Кадры) : 0.143
Размер потока : 120 Мбайт (73%)
Библиотека кодирования : XviD 73

Аудио #1
Идентификатор : 1
Формат : MPEG Audio
Версия формата : Version 1
Профиль формата : Layer 3
Идентификатор кодека : 55
Идентификатор кодека/Подсказка : MP3
Продолжительность : 23 м.
Вид битрейта : Постоянный
Битрейт : 128 Кбит/сек
Каналы : 2 канала
Частота : 48,0 КГц
Метод сжатия : С потерями
Размер потока : 21,3 Мбайт (13%)
Выравнивание : Соединение по промежуткам
Продолжительность промежутка : 42 мс. (1,00 видеокадр)
Время предзагрузки промежутка : 504 мс.
Библиотека кодирования : LAME3.99r
Настройки программы : -m s -V 4 -q 2 -lowpass 17 -b 128

Аудио #2
Идентификатор : 2
Формат : MPEG Audio
Версия формата : Version 1
Профиль формата : Layer 3
Идентификатор кодека : 55
Идентификатор кодека/Подсказка : MP3
Продолжительность : 23 м.
Вид битрейта : Постоянный
Битрейт : 128 Кбит/сек
Каналы : 2 канала
Частота : 48,0 КГц
Метод сжатия : С потерями
Размер потока : 21,3 Мбайт (13%)
Выравнивание : Соединение по промежуткам
Продолжительность промежутка : 42 мс. (1,00 видеокадр)
Время предзагрузки промежутка : 504 мс.
Библиотека кодирования : LAME3.99r
Настройки программы : -m s -V 4 -q 2 -lowpass 17 -b 128




   Похожие торренты   Торрент   Размер 
В этой теме нет новых непрочитанных сообщений. Финес и Ферб: Покорение второго измерения / Phineas and Ferb the Movie: Across the 2nd Dimension (2011) HDTVRip от Deadmauvlad | D | Disney

412 | 46

1.46 ГБ

В этой теме нет новых непрочитанных сообщений. Мошенничество / Swindle (2013) WEB-DLRip от Deadmauvlad | D | Disney

407 | 90

748.27 МБ

В этой теме нет новых непрочитанных сообщений. Трамплин Надежды / Облако 9 / Cloud 9 (2014) WEB-DLRip от Deadmauvlad | D | Disney

283 | 24

1.46 ГБ

В этой теме нет новых непрочитанных сообщений. Облако 9 / Трамплин Надежды / Cloud 9 (2014) WEB-DLRip от Deadmauvlad | D | Disney

280 | 41

747.52 МБ

В этой теме нет новых непрочитанных сообщений. Вондер Тут И Там / С приветом по планетам / Wander Over Yonder [S01] (2014) WEB-DLRip от Deadmauvlad | D | Disney

690 | 214

4.16 ГБ

В этой теме нет новых непрочитанных сообщений. Disney: Мир героев / Disney Universe (2011) PC | Repack от R.G. Origami

253 | 10

3.9 ГБ

В этой теме нет новых непрочитанных сообщений. Disney: Мир героев / Disney Universe (2011) PC | RePack от R.G. Repacker's

45 | 4

4.03 ГБ




Вы не можете начинать темы
Вы не можете отвечать на сообщения
Вы не можете редактировать свои сообщения
Вы не можете удалять свои сообщения
Вы не можете добавлять вложения

Перейти:  
Для Мосгорсуда, Роскомнадзора и рекламодателей: mosgorsud-torrent[собачка]yandex.ru
 Вход
ppkBB3cker v.2 © 2008-2014 @ PPK
[ Time : 0.050s | 15 Queries | GZIP : Off ]

Торрент трекер RUTOR.IN, Не можете зайти на rutor.org? Какой новый адрес рутор? Какое зеркало рутор? Не работает rutor.org и зеркала? Тогда наш торрент специально для вас. Rutor.in неофициальное зеркало rutor. В случае если у Вас заблокирован rutor или вдруг Вы не можете на него зайти, то Вы без труда сможете скачать бесплатно и без рекламы последние новинки кино, игр, сериалов и прочего у нас, на Rutor.in. Не нужно использовать прокси, чтобы зайти на рутор, достаточно воспользоваться нашим ресурсом. Все новые фильмы, игры, сериалы, книги и музыка за 2013 и 2014 годы через торрент бесплатно. Скачивайте фильмы в хорошем качестве, игры для пк, xbox, playstation без регистрации. У нас вы найдете новые Зарубежные сериалы и Русские сериалы 2013, 2014, 2015 годов. Оставайтесь с нами, качайте любимые фильмы, игры, сериалы, книги и музыку.