img image001 image001 image001 image001 image001 image001 image001 image001 image001 image001 image001 image001 image001 image001 image001

Planets Sun Sun Sun
Статистика раздачи
Автор: Nickolas3434 | Размер: 2.52 ГБ | Добавлен: 16 июн 2014
Раздают: 136    Качают: 20
Скачать торрент
Скачать торрент
Описание торрента

СообщениеДобавлено: 16 июн 2014 



Следующий / Next

Сезон 1, Эпизоды с 1 по 4 (из 4)

Год выпуска: 2001
Страна: Россия
Выпущено: Телекомпания REN TV
Жанр: комедия
Режиссёр: Олег Фомин
В ролях: Александр Абдулов, Александр Лойе, Нина Усатова, Сергей Степанченко, Сергей Греков, Сергей Чонишвили, Александр Медведев, В. Капалов, Мария Аронова, Владимир Епископосян, Татьяна Арнтгольц, Сергей Николаев, Олег Фомин, Алексей Панин
Перевод: Не требуется
Субтитры: Отсутствуют
О фильме: Лавр - вор в законе, авторитет "старых понятий", король преступного мира. По воровским законам он не может иметь семью и детей. Лавр так бы и не узнал ничего о своем сыне, если бы не экзамены в ВУЗ, на которых Федечку так несправедливо "завалили". И чтобы помочь племяннику, его боевая тетя решается рассказать Лавру о его отцовском долге...

Эпизод 1
Эпизод 2
Эпизод 3
Эпизод 4


Продолжительность: по ~00:48:00

Формат: AVI
Видео кодек: XviD
Аудио кодек: AC-3
Свойства видео: 704x400 (16:9), 25 fps, XviD 1.2.1, 1578 Kbps, 0.234 bit/pixel
Свойства аудио: 48,0 kHz, Audio Coding 3, 2 ch, ~192 kbps avg

Encoding video to: D:Temp�024.avi
XviD (1.2.2) 1600kbps 704x400 23.976fps (287690 frames)

...first pass...

xvid_encraw.exe: -pass1 "D:Temp�024_1.log" -qtype 0 -threads 6 -i "D:Temp�024.avs" -o NUL

Tot: enctime(ms) =1688163.00, length(bytes) = 4182090121
Avg: enctime(ms) = 5.87, fps = 170.42, length(bytes) = 14536
I frames: 2478 frames, size = 41994/ 104063138, quants = 2 / 2.00 / 2
P frames: 124520 frames, size = 27565/ 3432468388, quants = 2 / 2.00 / 2
B frames: 160692 frames, size = 4017/ 645558595, quants = 4 / 4.00 / 4

...last pass...

xvid_encraw.exe: -pass2 "D:Temp�024_1.log" -bitrate 1600 -qtype 0 -imin 1 -pmin 1 -bmin 1 -threads 6 -i "D:Temp�024.avs" -avi "D:Temp�024.avi"

Tot: enctime(ms) =2970254.00, length(bytes) = 2399220608
Avg: enctime(ms) = 10.32, fps = 96.86, length(bytes) = 8339
I frames: 2478 frames, size = 29260/ 72506848, quants = 2 / 2.86 / 4
P frames: 124520 frames, size = 14751/ 1836890019, quants = 2 / 3.04 / 4
B frames: 160692 frames, size = 3048/ 489823741, quants = 4 / 4.89 / 7

Общее
Полное имя : D:ВидеоNext.1.2001.DVDRipNEXT-1. avi
Формат : AVI
Формат/Информация : Audio Video Interleave
Размер файла : 618 Мбайт
Продолжительность : 48 м.
Общий поток : 1779 Кбит/сек
Программа кодирования : VirtualDubMod 1.5.10.3 | www.virtualdub-fr.org || (build 2550/release)
Библиотека кодирования : VirtualDub build 35486/release

Видео
Идентификатор : 0
Формат : MPEG-4 Visual
Профиль формата : Advanced Simple@L5
Параметр BVOP формата : 2
Параметр QPel формата : Нет
Параметр GMC формата : Без точки перехода
Параметр матрицы формата : Default (H.263)
Режим смешивания : Сжатый битовый поток
Идентификатор кодека : XVID
Идентификатор кодека/Подсказка : XviD
Продолжительность : 48 м.
Битрейт : 1578 Кбит/сек
Ширина : 704 пикселя
Высота : 400 пикселей
Соотношение сторон : 16:9
Частота кадров : 23,976 кадра/сек
Цветовое пространство : YUV
Субдискретизация насыщенности : 4:2:0
Битовая глубина : 8 бит
Тип развёртки : Прогрессивная
Метод сжатия : С потерями
Бит/(Пиксели*Кадры) : 0.234
Размер потока : 548 Мбайт (89%)
Библиотека кодирования : XviD 1.2.1 (UTC 2008-12-04)

Аудио
Идентификатор : 1
Формат : AC-3
Формат/Информация : Audio Coding 3
Расширение режима : CM (complete main)
Параметр Endianness формата : Big
Идентификатор кодека : 2000
Продолжительность : 48 м.
Вид битрейта : Постоянный
Битрейт : 192 Кбит/сек
Каналы : 2 канала
Расположение каналов : Front: L R
Частота : 48,0 КГц
Битовая глубина : 16 бит
Метод сжатия : С потерями
Размер потока : 66,7 Мбайт (11%)
Выравнивание : Разделение по промежуткам
Продолжительность промежутка : 42 мс. (1,00 видеокадр)
Время предзагрузки промежутка : 500 мс.





   Похожие торренты   Торрент   Размер 
В этой теме нет новых непрочитанных сообщений. Next / Следующий (2001) DVDRip

36 | 2

1.1 ГБ

В этой теме нет новых непрочитанных сообщений. Видок / Vidocq (2001) HDRip-AVC от WazZzuP | D

33 | 5

743.17 МБ

В этой теме нет новых непрочитанных сообщений. Next 2 / Следующий 2 (2002) DVDRip

148 | 27

2.94 ГБ

В этой теме нет новых непрочитанных сообщений. Next 3 / Следующий 3 (2003) DVDRip

114 | 35

4.75 ГБ

В этой теме нет новых непрочитанных сообщений. На следующий день / The day after (1983) DVDRip

117 | 10

1.44 ГБ

В этой теме нет новых непрочитанных сообщений. На следующий день / The day after (1983) DVDRip

41 | 2

1.08 ГБ

В этой теме нет новых непрочитанных сообщений. На следующий день / The Day After (1983) DVDRip-AVC | L2, L1

203 | 26

2.05 ГБ




Вы не можете начинать темы
Вы не можете отвечать на сообщения
Вы не можете редактировать свои сообщения
Вы не можете удалять свои сообщения
Вы не можете добавлять вложения

Перейти:  
Для Мосгорсуда, Роскомнадзора и рекламодателей: mosgorsud-torrent[собачка]yandex.ru
 Вход
ppkBB3cker v.2 © 2008-2014 @ PPK
[ Time : 0.041s | 17 Queries | GZIP : Off ]

Торрент трекер RUTOR.IN, Не можете зайти на rutor.org? Какой новый адрес рутор? Какое зеркало рутор? Не работает rutor.org и зеркала? Тогда наш торрент специально для вас. Rutor.in неофициальное зеркало rutor. В случае если у Вас заблокирован rutor или вдруг Вы не можете на него зайти, то Вы без труда сможете скачать бесплатно и без рекламы последние новинки кино, игр, сериалов и прочего у нас, на Rutor.in. Не нужно использовать прокси, чтобы зайти на рутор, достаточно воспользоваться нашим ресурсом. Все новые фильмы, игры, сериалы, книги и музыка за 2013 и 2014 годы через торрент бесплатно. Скачивайте фильмы в хорошем качестве, игры для пк, xbox, playstation без регистрации. У нас вы найдете новые Зарубежные сериалы и Русские сериалы 2013, 2014, 2015 годов. Оставайтесь с нами, качайте любимые фильмы, игры, сериалы, книги и музыку.
cron