img image001 image001 image001 image001 image001 image001 image001 image001 image001 image001 image001 image001 image001 image001 image001

Planets Sun Sun Sun
Статистика раздачи
Автор: Nickolas3434 | Размер: 16.07 ГБ | Добавлен: 18 июн 2014
Раздают: 39    Качают: 37
Скачать торрент
Скачать торрент
Описание торрента

СообщениеДобавлено: 18 июн 2014 

Информация о фильме
Название: Конец парада
Оригинальное название: Parade's End
Год выхода: 2012
Жанр: Драма, военный
Режиссер: Сузанна Уайт
В ролях: Бенедикт Камбербэтч, Ребекка Холл, Роджер Аллам, Эделейд Клеменс, Руперт Эверетт, Миранда Ричардсон, Саша Уоддэлл, Джанет МакТир, Клер Хиггинс, Том Мисон, Стивен Грэм, Малкольм Синклер, Энн-Мэри Дафф, Нед Деннехи, Анна Скеллерн, Сильвестра Ле Тузель, Алан Ховард, Джонатан Кой, Кандина Бенсон, Джек Хьюстон, Руфус Сьюэлл, Фредди Фокс, Патрик Кеннеди, Эллиот Леви, Рональд Пикап, Миша Хэндли, Лесли Де Грютер

О фильме: На закате Эдвардианской эпохи Кристофер Титженс вступает в разрушительный брак с прекрасной, но коварной светской львицей Сильвией, понёсшей дитя возможно и не от него. Кристофер решает хранить верность своей жене всю жизнь, несмотря на её неверность. Но в его жизнь, словно лучик света, врывается бесстрашная молодая суфражистка Валентайн Уонноп. Перенося нас из сверкающих салонов высшего света Лондона в окопы на полях сражений Франции, "Конец парада" знаменует собой переломный момент прошлого века, когда уверенность в завтрашнем дне исчезла, и судьбы изменились навсегда.



Выпущено: Великобритания, США
Студия: British Broadcasting Corporation (ВВС), Home Box Office (HBO)
Продолжительность: 5 x ~ 00:58:00
Перевод: Профессиональный многоголосый

Файл
Кодек: MPEG-4 AVC
Качество: BDRip 720p
Видео: 6500 Кбит/с, 1280x720
Звук:
Аудио #1: Русский (AC3, 2 ch, 192 Кбит/с) / Профессиональный многоголосый (Домашний)
Аудио #2: Русский (AC3, 6 ch, 384 Кбит/с) / Профессиональный многоголосый (Agatha Studdio)
Аудио #3: Английский (AC3, 6 ch, 384 Кбит/с)
Субтитры: Русские, английские

Общее
Уникальный идентификатор : 171992891568465668558552747579743405576 (0x8164A0422601E689A4B644677B880608)
Полное имя : D:В планахСериалы MediaClubKonec.parada.(1.sezon).2012.x264.BDRip.720p_MediaClubKonec.parada.(1.sezon.01.seriya.iz.05).2012.x264.BDRip.720p_MediaClub.mkv
Формат : Matroska
Версия формата : Version 4 / Version 2
Размер файла : 3,21 Гбайт
Продолжительность : 58 м.
Общий поток : 7862 Кбит/сек
Название фильма : ReJIiZ MediaClub by BenderBEST
Дата кодирования : UTC 2014-02-05 19:33:40
Программа кодирования : mkvmerge v6.5.0 ('Isn't she lovely') built on Oct 20 2013 12:50:05
Библиотека кодирования : libebml v1.3.0 + libmatroska v1.4.1

Видео
Идентификатор : 1
Формат : AVC
Формат/Информация : Advanced Video Codec
Профиль формата : High@L4.1
Параметр CABAC формата : Да
Параметр ReFrames формата : 5 кадров
Идентификатор кодека : V_MPEG4/ISO/AVC
Продолжительность : 58 м.
Битрейт : 6514 Кбит/сек
Ширина : 1280 пикселей
Высота : 720 пикселей
Соотношение сторон : 16:9
Режим частоты кадров : Постоянный
Частота кадров : 25,000 кадров/сек
Цветовое пространство : YUV
Субдискретизация насыщенности : 4:2:0
Битовая глубина : 8 бит
Тип развёртки : Прогрессивная
Бит/(Пиксели*Кадры) : 0.283
Размер потока : 2,60 Гбайт (81%)
Библиотека кодирования : x264 core 128 r2216 198a7ea
Настройки программы : cabac=1 / ref=5 / deblock=1:-1:-1 / analyse=0x3:0x113 / me=umh / subme=7 / psy=1 / psy_rd=1.00:0.15 / mixed_ref=1 / me_range=16 / chroma_me=1 / trellis=1 / 8x8dct=1 / cqm=0 / deadzone=21,11 / fast_pskip=1 / chroma_qp_offset=-3 / threads=6 / lookahead_threads=1 / sliced_threads=0 / nr=0 / decimate=1 / interlaced=0 / bluray_compat=0 / constrained_intra=0 / bframes=3 / b_pyramid=2 / b_adapt=2 / b_bias=0 / direct=1 / weightb=1 / open_gop=0 / weightp=2 / keyint=250 / keyint_min=25 / scenecut=40 / intra_refresh=0 / rc_lookahead=40 / rc=2pass / mbtree=1 / bitrate=6514 / ratetol=1.0 / qcomp=0.60 / qpmin=0 / qpmax=69 / qpstep=4 / cplxblur=20.0 / qblur=0.5 / ip_ratio=1.40 / aq=1:1.00
Язык : English
Default : Да
Forced : Нет

Аудио #1
Идентификатор : 2
Формат : AC-3
Формат/Информация : Audio Coding 3
Расширение режима : CM (complete main)
Параметр Endianness формата : Big
Идентификатор кодека : A_AC3
Продолжительность : 58 м.
Вид битрейта : Постоянный
Битрейт : 192 Кбит/сек
Каналы : 2 канала
Расположение каналов : Front: L R
Частота : 48,0 КГц
Битовая глубина : 16 бит
Метод сжатия : С потерями
Размер потока : 80,4 Мбайт (2%)
Заголовок : Домашний
Язык : Russian
Default : Да
Forced : Нет

Аудио #2
Идентификатор : 3
Формат : AC-3
Формат/Информация : Audio Coding 3
Расширение режима : CM (complete main)
Параметр Endianness формата : Big
Идентификатор кодека : A_AC3
Продолжительность : 58 м.
Вид битрейта : Постоянный
Битрейт : 384 Кбит/сек
Каналы : 6 каналов
Расположение каналов : Front: L C R, Side: L R, LFE
Частота : 48,0 КГц
Битовая глубина : 16 бит
Метод сжатия : С потерями
Размер потока : 161 Мбайт (5%)
Заголовок : Agatha Studdio
Язык : Russian
Default : Нет
Forced : Нет

Аудио #3
Идентификатор : 4
Формат : AC-3
Формат/Информация : Audio Coding 3
Расширение режима : CM (complete main)
Параметр Endianness формата : Big
Идентификатор кодека : A_AC3
Продолжительность : 58 м.
Вид битрейта : Постоянный
Битрейт : 384 Кбит/сек
Каналы : 6 каналов
Расположение каналов : Front: L C R, Side: L R, LFE
Частота : 48,0 КГц
Битовая глубина : 16 бит
Метод сжатия : С потерями
Размер потока : 161 Мбайт (5%)
Заголовок : BaibaKo
Язык : Russian
Default : Нет
Forced : Нет

Аудио #4
Идентификатор : 5
Формат : AC-3
Формат/Информация : Audio Coding 3
Расширение режима : CM (complete main)
Параметр Endianness формата : Big
Идентификатор кодека : A_AC3
Продолжительность : 58 м.
Вид битрейта : Постоянный
Битрейт : 384 Кбит/сек
Каналы : 6 каналов
Расположение каналов : Front: L C R, Side: L R, LFE
Частота : 48,0 КГц
Битовая глубина : 16 бит
Метод сжатия : С потерями
Размер потока : 161 Мбайт (5%)
Язык : English
Default : Нет
Forced : Нет

Текст #1
Идентификатор : 6
Формат : UTF-8
Идентификатор кодека : S_TEXT/UTF8
Идентификатор кодека/Информация : UTF-8 Plain Text
Язык : Russian
Default : Да
Forced : Нет

Текст #2
Идентификатор : 7
Формат : UTF-8
Идентификатор кодека : S_TEXT/UTF8
Идентификатор кодека/Информация : UTF-8 Plain Text
Заголовок : Eng sub
Язык : English
Default : Нет
Forced : Нет






Релиз от:



   Похожие торренты   Торрент   Размер 
В этой теме нет новых непрочитанных сообщений. Конец Парада / Parade’s End [01x01-04] (2012) WEB-DL | P

1 | 1

4.56 ГБ

В этой теме нет новых непрочитанных сообщений. Конец парада / Parade's End [S01] (2012) HDTVRip | P

86 | 3

3.76 ГБ

В этой теме нет новых непрочитанных сообщений. Конец парада / Parade's End [S01] (2012) WEB-DLRip от Baibako

4 | 1

3.86 ГБ

В этой теме нет новых непрочитанных сообщений. Конец парада / Parade's End [01х01-05 из 05] (2012) HDRip от Scarabey | Р

19 | 3

3.65 ГБ

В этой теме нет новых непрочитанных сообщений. На зов скорби / Les revenants [S01] (2012) BDRip 720p | Agatha Studdio

91 | 16

24.35 ГБ

В этой теме нет новых непрочитанных сообщений. Джек Айриш / Jack Irish [S01-02] (2012-2014) BDRip 720p | AlexFilm & Agatha Studdio

38 | 5

14.26 ГБ

В этой теме нет новых непрочитанных сообщений. Джек Айриш / Jack Irish [S01-02] (2012-2014) BDRip 720p | AlexFilm & Agatha Studdio

12 | 8

27.77 ГБ




Вы не можете начинать темы
Вы не можете отвечать на сообщения
Вы не можете редактировать свои сообщения
Вы не можете удалять свои сообщения
Вы не можете добавлять вложения

Перейти:  
Для Мосгорсуда, Роскомнадзора и рекламодателей: mosgorsud-torrent[собачка]yandex.ru
 Вход
ppkBB3cker v.2 © 2008-2014 @ PPK
[ Time : 0.029s | 15 Queries | GZIP : On ]

Торрент трекер RUTOR.IN, Не можете зайти на rutor.org? Какой новый адрес рутор? Какое зеркало рутор? Не работает rutor.org и зеркала? Тогда наш торрент специально для вас. Rutor.in неофициальное зеркало rutor. В случае если у Вас заблокирован rutor или вдруг Вы не можете на него зайти, то Вы без труда сможете скачать бесплатно и без рекламы последние новинки кино, игр, сериалов и прочего у нас, на Rutor.in. Не нужно использовать прокси, чтобы зайти на рутор, достаточно воспользоваться нашим ресурсом. Все новые фильмы, игры, сериалы, книги и музыка за 2013 и 2014 годы через торрент бесплатно. Скачивайте фильмы в хорошем качестве, игры для пк, xbox, playstation без регистрации. У нас вы найдете новые Зарубежные сериалы и Русские сериалы 2013, 2014, 2015 годов. Оставайтесь с нами, качайте любимые фильмы, игры, сериалы, книги и музыку.