img image001 image001 image001 image001 image001 image001 image001 image001 image001 image001 image001 image001 image001 image001 image001

Planets Sun Sun Sun
Статистика раздачи
Автор: Nickolas3434 | Размер: 8.21 ГБ | Добавлен: 24 июн 2014
Раздают: 32    Качают: 40
Скачать торрент
Скачать торрент
Описание торрента

СообщениеДобавлено: 24 июн 2014 

Информация о фильме
Название: Торчвуд
Оригинальное название: Torchwood
Год выхода: 2006
Жанр: фантастика, драма
Режиссер: Энди Годдар, Джонатан Фокс Бассетт, Гвинет Хордер-Пэйтон
В ролях: Джон Барроумен, Ив Майлс, Кай Оуэн, Гарет Дэвид-Ллойд, Берн Горман, Наоко Мори, Том Прайс, Пол Кэйси, Мехи Файфер, Алекса Хэвинс

О фильме:
Институт Турчвуд - тайная неправительственная организация, основанная королевой Викторией после встречи с Доктором, целью которой является изучение и борьба с инопланетными угрозами, а так же поиск и захват инопланетных технологий на благо Империи («если это инопланетное, то оно наше»).

Капитан Джек Харкнесс - бывший Агент Времени из 51 века и жуликоватый жулик, который возглавляет отделение Торчвуда в Кардиффе. Вместе со своей командой он быстро находит, прикарманивает и быстро прячет все внеземное барахлишко, которое попадает на Землю через пространственно-временной разлом.



Страна: Великобритания
Студия: BBC
Продолжительность: ~00:52:00
Перевод: Любительский (многоголосый закадровый) BaibaKo

Файл
Формат: MKV
Качество: BDRip
Кодек: x264
Видео: 1920х1080 , 25.000 fps, ~9600 kbps
Звук: Аудио кодек: AC3, DTS
Аудио Rus: AC-3, 48.0 KHz, 6 ch, 384 Kbps
Аудио Eng: DTS, 48.0 KHz, 6 ch, 1509 Kbps

Релиз от:
Перевод: Татьяна Saavick
Озвучка: Ольга Мотрич, Татьяна Оболевич, Владимир Курдов и Алексей Кузнецов
Монтаж: Виталий Мартыняк
Обложка: Антон Максимов

01. Всё меняется / Everything Changes
02. День первый / Day One
03. Машина призраков / Ghost Machine
04. Киберженщина / Cyberwoman
05. Маленькие миры / Small Worlds
06. Сельская местность / Countrycide
07. Дары данайцев / Greeks Bearing Gifts
08. Они продолжают убивать Сьюзи / They Keep Killing Suzie
09. Разные ботинки / Random Shoes
10. Вне времени / Out of Time
11. Поединок / Combat
12. Капитан Джек Харкнесс / Captain Jack Harkness
13. Конец дней / End of Days
General
Format : Matroska
Format version : Version 4 / Version 2
File size : 4.11 GiB
Duration : 51mn 10s
Overall bit rate : 11.5 Mbps
Encoded date : UTC 2014-04-01 21:29:34
Writing application : mkvmerge v6.7.0 ('Back to the Ground') 64bit built on Jan 8 2014 15:10:52
Writing library : libebml v1.3.0 + libmatroska v1.4.1

Video
ID : 1
Format : AVC
Format/Info : Advanced Video Codec
Format profile : High@L4.1
Format settings, CABAC : Yes
Format settings, ReFrames : 4 frames
Codec ID : V_MPEG4/ISO/AVC
Duration : 51mn 10s
Bit rate : 9 602 Kbps
Width : 1 920 pixels
Height : 1 080 pixels
Display aspect ratio : 16:9
Frame rate mode : Constant
Frame rate : 25.000 fps
Color space : YUV
Chroma subsampling : 4:2:0
Bit depth : 8 bits
Scan type : Progressive
Bits/(Pixel*Frame) : 0.185
Stream size : 3.35 GiB (82%)
Writing library : x264 core 124 r2197 69a0443
Encoding settings : cabac=1 / ref=4 / deblock=1:0:0 / analyse=0x3:0x133 / me=umh / subme=8 / psy=1 / psy_rd=1.00:0.00 / mixed_ref=1 / me_range=16 / chroma_me=1 / trellis=1 / 8x8dct=1 / cqm=0 / deadzone=21,11 / fast_pskip=0 / chroma_qp_offset=-2 / threads=18 / sliced_threads=0 / nr=0 / decimate=1 / interlaced=0 / bluray_compat=0 / constrained_intra=0 / bframes=3 / b_pyramid=2 / b_adapt=1 / b_bias=0 / direct=1 / weightb=1 / open_gop=0 / weightp=2 / keyint=250 / keyint_min=25 / scenecut=40 / intra_refresh=0 / rc_lookahead=40 / rc=2pass / mbtree=1 / bitrate=9602 / ratetol=1.0 / qcomp=0.60 / qpmin=0 / qpmax=69 / qpstep=4 / cplxblur=20.0 / qblur=0.5 / ip_ratio=1.40 / aq=1:1.00
Language : English
Default : Yes
Forced : No

Audio #1
ID : 2
Format : AC-3
Format/Info : Audio Coding 3
Mode extension : CM (complete main)
Format settings, Endianness : Big
Codec ID : A_AC3
Duration : 51mn 10s
Bit rate mode : Constant
Bit rate : 384 Kbps
Channel(s) : 6 channels
Channel positions : Front: L C R, Side: L R, LFE
Sampling rate : 48.0 KHz
Bit depth : 16 bits
Compression mode : Lossy
Stream size : 141 MiB (3%)
Language : Russian
Default : Yes
Forced : No

Audio #2
ID : 3
Format : DTS
Format/Info : Digital Theater Systems
Mode : 16
Format settings, Endianness : Big
Codec ID : A_DTS
Duration : 51mn 10s
Bit rate mode : Constant
Bit rate : 1 509 Kbps
Channel(s) : 6 channels
Channel positions : Front: L C R, Side: L R, LFE
Sampling rate : 48.0 KHz
Bit depth : 24 bits
Compression mode : Lossy
Stream size : 552 MiB (13%)
Title : DTS
Language : English
Default : No
Forced : No

Menu
00:00:00.000 : en:01
00:10:05.638 : en:02
00:18:09.922 : en:03
00:28:16.261 : en:04
00:37:40.325 : en:05
00:50:09.673 : en:06
00:50:38.569 : en:07
Когда раздача ведётся путём добавления новых серий, при каждом добавлении создётся новый торрент. Чтобы начать докачку новой серии, пользователям необходимо сделать следующее:
(1) остановить скачивание,
(2) удалить старый торрент у себя из клиента (старые серии удалять не надо),
(3) скачать новый торрент и запустить его у себя в клиенте вместо старого, при этом указать клиенту путь в старую папку, куда и должно происходить скачивание новых серий.
Ваш клиент при этом должен произвести хеширование (проверку) старой папки (если не производит сам - помогите ему сделать это), и будет докачивать только те серии, которых у вас ещё нет. Старые серии при этом не удаляются, а продолжают раздаваться!
Eсли вы уже удалили старые серии, то предотвратить повторную закачку старых серий можно, отжав галочку в соответсвующих местах при запуске нового торрента. По возможности, желательно не удалять старые серии как можно дольше, чтобы релизёр не столько продолжал раздавать старые серии, а смог сконцентрироваться на новых.



   Похожие торренты   Торрент   Размер 
В этой теме нет новых непрочитанных сообщений. Торчвуд / Torchwood [01x01 из 13] (2006) HD1080p BluRay BaibaKo

22 | 20

4.11 ГБ

В этой теме нет новых непрочитанных сообщений. Торчвуд / Torchwood [S01] (2006) BDRip 720p

120 | 5

30.08 ГБ

В этой теме нет новых непрочитанных сообщений. Торчвуд / Torchwood [S01-04] (2006-2011) DVDRip, BDRip

53 | 323

18.4 ГБ

В этой теме нет новых непрочитанных сообщений. Торчвуд: День чуда / Torchwood: Miracle Day [S04] (2011) WEB-DLRip от Baibako

7 | 2

6.46 ГБ

В этой теме нет новых непрочитанных сообщений. Торчвуд: День чуда / Torchwood: Miracle Day [S04] (2011) HDTV 720p от BaibaKo

2 | 2

18.88 ГБ

В этой теме нет новых непрочитанных сообщений. Торчвуд: День Чуда / Torchwood: Miracle Day [S04] (2011) BDRip 720p

3 | 2

22.54 ГБ

В этой теме нет новых непрочитанных сообщений. Торчвуд / Torchwood [S02] (2008) HDTVRip 720p

0 | 2

14.83 ГБ




Вы не можете начинать темы
Вы не можете отвечать на сообщения
Вы не можете редактировать свои сообщения
Вы не можете удалять свои сообщения
Вы не можете добавлять вложения

Перейти:  
Для Мосгорсуда, Роскомнадзора и рекламодателей: mosgorsud-torrent[собачка]yandex.ru
 Вход
ppkBB3cker v.2 © 2008-2014 @ PPK
[ Time : 0.074s | 15 Queries | GZIP : Off ]

Торрент трекер RUTOR.IN, Не можете зайти на rutor.org? Какой новый адрес рутор? Какое зеркало рутор? Не работает rutor.org и зеркала? Тогда наш торрент специально для вас. Rutor.in неофициальное зеркало rutor. В случае если у Вас заблокирован rutor или вдруг Вы не можете на него зайти, то Вы без труда сможете скачать бесплатно и без рекламы последние новинки кино, игр, сериалов и прочего у нас, на Rutor.in. Не нужно использовать прокси, чтобы зайти на рутор, достаточно воспользоваться нашим ресурсом. Все новые фильмы, игры, сериалы, книги и музыка за 2013 и 2014 годы через торрент бесплатно. Скачивайте фильмы в хорошем качестве, игры для пк, xbox, playstation без регистрации. У нас вы найдете новые Зарубежные сериалы и Русские сериалы 2013, 2014, 2015 годов. Оставайтесь с нами, качайте любимые фильмы, игры, сериалы, книги и музыку.
cron