img image001 image001 image001 image001 image001 image001 image001 image001 image001 image001 image001 image001 image001 image001 image001

Planets Sun Sun Sun
Статистика раздачи
Автор: Nickolas3434 | Размер: 1.97 ГБ | Добавлен: 28 июн 2014
Раздают: 121    Качают: 56
Скачать торрент
Скачать торрент
Описание торрента

СообщениеДобавлено: 28 июн 2014 

Информация о фильме
Название: Физрук
Год выхода: 2014
Жанр: Комедия, ситком
Режиссер: Фёдор Стуков, Сергей Сенцов
В ролях: Анастасия Панина, Дмитрий Нагиев, Андрей Крыжний, Карина Мишулина, Максим Артамонов, Наталья Коренная, Владимир Жеребцов, Артур Сопельник, Ян Цапник, Елена Муравьёва, Роман Индык, Елена Коллегова

О фильме:
Сериал расскажет о начальнике охраны крупного бизнесмена, которого хозяин увольняет за устаревшие методы работы, приобретенные главным героем во время бурного бандитского прошлого. Новоиспеченный безработный и бывший начальник охраны устраивается физруком в школу, где учится дочь его бывшего босса, в надежде наладить с ним отношения и вернуться на прежнюю работу.



Страна: Россия
Студия: Good Story Media по заказу ТНТ
Продолжительность: 20 x ~ 00:25:00
Перевод: Не требуется

Файл
Качество: WEB-DLRip | КПК
Видео: MPEG-4 AVC (x264), 640x360, ~500 kbps, 25.000 fps
Аудио: AAC LC, 44.1 KHz, 2 ch, 128 Kbps
Субтитры: Нет

Семпл


Complete name : E:KinoFizruk.AVC.KPK.GeneralfilmFizruk.S01.2014.AVC.WEB-DLRip.KPK.GeneralfilmFizruk.s01e02.2014.AVC.WEB-DLRip.KPK.Generalfilm.mp4
Format : MPEG-4
Format profile : Base Media
Codec ID : isom
File size : 102 MiB
Duration : 22mn 35s
Overall bit rate mode : Variable
Overall bit rate : 630 Kbps
Encoded date : UTC 2014-05-25 09:14:59
Tagged date : UTC 2014-05-25 09:14:59

Video
ID : 1
Format : AVC
Format/Info : Advanced Video Codec
Format profile : Baseline@L4.1
Format settings, CABAC : No
Format settings, ReFrames : 6 frames
Codec ID : avc1
Codec ID/Info : Advanced Video Coding
Duration : 22mn 35s
Bit rate : 500 Kbps
Maximum bit rate : 1 671 Kbps
Width : 640 pixels
Height : 360 pixels
Display aspect ratio : 16:9
Frame rate mode : Constant
Frame rate : 25.000 fps
Color space : YUV
Chroma subsampling : 4:2:0
Bit depth : 8 bits
Scan type : Progressive
Bits/(Pixel*Frame) : 0.087
Stream size : 80.7 MiB (79%)
Writing library : x264 core 119 r2106 07efeb4
Encoding settings : cabac=0 / ref=6 / deblock=1:-1:-1 / analyse=0x1:0x111 / me=umh / subme=7 / psy=1 / psy_rd=1.00:0.00 / mixed_ref=0 / me_range=16 / chroma_me=1 / trellis=1 / 8x8dct=0 / cqm=0 / deadzone=21,11 / fast_pskip=0 / chroma_qp_offset=-2 / threads=3 / sliced_threads=0 / nr=0 / decimate=1 / interlaced=0 / bluray_compat=0 / constrained_intra=0 / bframes=0 / weightp=0 / keyint=250 / keyint_min=25 / scenecut=40 / intra_refresh=0 / rc_lookahead=60 / rc=2pass / mbtree=1 / bitrate=500 / ratetol=1.0 / qcomp=0.60 / qpmin=0 / qpmax=69 / qpstep=4 / cplxblur=20.0 / qblur=0.5 / ip_ratio=1.40 / aq=1:1.00
Encoded date : UTC 2014-05-25 09:14:59
Tagged date : UTC 2014-05-25 09:15:09

Audio
ID : 2
Format : AAC
Format/Info : Advanced Audio Codec
Format profile : LC
Codec ID : 40
Duration : 22mn 35s
Bit rate mode : Variable
Bit rate : 127 Kbps
Maximum bit rate : 146 Kbps
Channel count : 2 channels
Channel positions : Front: L R
Sampling rate : 48.0 KHz
Compression mode : Lossy
Stream size : 20.6 MiB (20%)
Encoded date : UTC 2014-05-25 09:15:08
Tagged date : UTC 2014-05-25 09:15:09

Релиз от: Спс за исходник:



   Похожие торренты   Торрент   Размер 
В этой теме нет новых непрочитанных сообщений. Физрук [01-13] (2014) WEB-DLRip от MegaPeer

349 | 1654

3.34 ГБ

В этой теме нет новых непрочитанных сообщений. Физрук [01-12] (2014) WEB-DLRip от MegaPeer

1120 | 1253

3.08 ГБ

В этой теме нет новых непрочитанных сообщений. Физрук [01-13] (2014) WEB-DLRip от New-Team

3 | 34

4.44 ГБ

В этой теме нет новых непрочитанных сообщений. Физрук [01-13] (2014) WEB-DLRip от New-Team

14 | 55

2.21 ГБ

В этой теме нет новых непрочитанных сообщений. Физрук [01-06] (2014) WEB-DLRip от New-Team

20 | 179

1.02 ГБ

В этой теме нет новых непрочитанных сообщений. Физрук [01-05] (2014) WEB-DLRip от New-Team

158 | 165

871.51 МБ

В этой теме нет новых непрочитанных сообщений. Физрук [01-14] (2014) WEB-DLRip от MegaPeer

490 | 1332

3.6 ГБ




Вы не можете начинать темы
Вы не можете отвечать на сообщения
Вы не можете редактировать свои сообщения
Вы не можете удалять свои сообщения
Вы не можете добавлять вложения

Перейти:  
Для Мосгорсуда, Роскомнадзора и рекламодателей: mosgorsud-torrent[собачка]yandex.ru
 Вход
ppkBB3cker v.2 © 2008-2014 @ PPK
[ Time : 0.052s | 14 Queries | GZIP : Off ]

Торрент трекер RUTOR.IN, Не можете зайти на rutor.org? Какой новый адрес рутор? Какое зеркало рутор? Не работает rutor.org и зеркала? Тогда наш торрент специально для вас. Rutor.in неофициальное зеркало rutor. В случае если у Вас заблокирован rutor или вдруг Вы не можете на него зайти, то Вы без труда сможете скачать бесплатно и без рекламы последние новинки кино, игр, сериалов и прочего у нас, на Rutor.in. Не нужно использовать прокси, чтобы зайти на рутор, достаточно воспользоваться нашим ресурсом. Все новые фильмы, игры, сериалы, книги и музыка за 2013 и 2014 годы через торрент бесплатно. Скачивайте фильмы в хорошем качестве, игры для пк, xbox, playstation без регистрации. У нас вы найдете новые Зарубежные сериалы и Русские сериалы 2013, 2014, 2015 годов. Оставайтесь с нами, качайте любимые фильмы, игры, сериалы, книги и музыку.