img image001 image001 image001 image001 image001 image001 image001 image001 image001 image001 image001 image001 image001 image001 image001

Planets Sun Sun Sun
Статистика раздачи
Автор: Nickolas3434 | Размер: 4.05 ГБ | Добавлен: 29 июн 2014
Раздают: 25    Качают: 29
Скачать торрент
Скачать торрент
Описание торрента

СообщениеДобавлено: 29 июн 2014 

Информация о фильме
Название: Царство
Оригинальное название: Reign
Год выхода: 2013
Жанр: Фэнтези, драма
Режиссер: Мэттью Хатингс, Брэд Силберлинг
В ролях: Аделаида Кейн, Тоби Регбо, Торранс Кумбс, Меган Фоллоуз, Алан Ван Спрэнг, Селина Синден, Кэйтлин Стэйси, Анна Попплуэлл

О фильме:
Действия разворачиваются в период юности Королевы Шотландии Марии Стюарт, которая должна стать супругой принца Франциска, сына короля Генриха второго, чтобы укрепить политический союз между державами. Мария прибывает во Францию в сопровождении своих фрейлин и знакомится с будущим супругом. Принц явно не заинтересован в этом союзе и всячески пытается ему помешать, так как уже увлечен одной из дворцовых красавиц. Помимо всех интриг и заговоров на политическом уровне со стороны противников свадьбы, незаконнорожденный сын Короля, Бэш, также принимает меры, чтобы разбить пару помолвленных - Марии и Франциска.



Страна: США
Студия: CBS Television Studios, World 2000 Entertainment, Octagon Films
Продолжительность: 22 х 00:42:00
Перевод: Профессиональный (многоголосый, закадровый) [Amedia]

Файл
Формат: MP4
Качество: WEB-DLRip | КПК
Видео: MPEG-4 AVC (x264), 640x360, ~500 kbps, 23.976 fps
Аудио: AAC LC, 48.0 KHz, 2 ch, 128 Kbps
Субтитры: Нет

Семпл


Complete name : E:KinoCarstvo.AVC.KPK.GeneralfilmCarstvo.S01.2013-2014.AVC.KPK.Amedia.GeneralfilmCarstvo.s01e11.2013.AVC.KPK.Amedia.Generalfilm.mp4
Format : MPEG-4
Format profile : Base Media
Codec ID : isom
File size : 191 MiB
Duration : 42mn 20s
Overall bit rate mode : Variable
Overall bit rate : 631 Kbps
Encoded date : UTC 2014-05-03 14:47:09
Tagged date : UTC 2014-05-03 14:47:09

Video
ID : 1
Format : AVC
Format/Info : Advanced Video Codec
Format profile : Baseline@L4.1
Format settings, CABAC : No
Format settings, ReFrames : 6 frames
Codec ID : avc1
Codec ID/Info : Advanced Video Coding
Duration : 42mn 20s
Bit rate : 500 Kbps
Maximum bit rate : 2 981 Kbps
Width : 640 pixels
Height : 360 pixels
Display aspect ratio : 16:9
Frame rate mode : Constant
Frame rate : 23.976 fps
Color space : YUV
Chroma subsampling : 4:2:0
Bit depth : 8 bits
Scan type : Progressive
Bits/(Pixel*Frame) : 0.091
Stream size : 151 MiB (79%)
Writing library : x264 core 125 r2200 999b753
Encoding settings : cabac=0 / ref=6 / deblock=1:-1:-1 / analyse=0x1:0x111 / me=umh / subme=7 / psy=1 / psy_rd=1.00:0.00 / mixed_ref=0 / me_range=16 / chroma_me=1 / trellis=1 / 8x8dct=0 / cqm=0 / deadzone=21,11 / fast_pskip=0 / chroma_qp_offset=-2 / threads=12 / lookahead_threads=2 / sliced_threads=0 / nr=0 / decimate=1 / interlaced=0 / bluray_compat=0 / constrained_intra=0 / bframes=0 / weightp=0 / keyint=250 / keyint_min=23 / scenecut=40 / intra_refresh=0 / rc_lookahead=60 / rc=2pass / mbtree=1 / bitrate=500 / ratetol=1.0 / qcomp=0.60 / qpmin=0 / qpmax=69 / qpstep=4 / cplxblur=20.0 / qblur=0.5 / ip_ratio=1.40 / aq=1:1.00
Encoded date : UTC 2014-05-03 14:47:09
Tagged date : UTC 2014-05-03 14:47:13

Audio
ID : 2
Format : AAC
Format/Info : Advanced Audio Codec
Format profile : LC
Codec ID : 40
Duration : 42mn 20s
Bit rate mode : Variable
Bit rate : 128 Kbps
Maximum bit rate : 200 Kbps
Channel count : 2 channels
Channel positions : Front: L R
Sampling rate : 48.0 KHz
Compression mode : Lossy
Stream size : 38.8 MiB (20%)
Encoded date : UTC 2014-05-03 14:47:12
Tagged date : UTC 2014-05-03 14:47:13

Релиз от:



   Похожие торренты   Торрент   Размер 
В этой теме нет новых непрочитанных сообщений. Царство / Reign [S01-02] (2013-2015) WEB-DLRip от Generalfilm | КПК | Amedia

129 | 151

7.96 ГБ

В этой теме нет новых непрочитанных сообщений. Царство / Reign [01-02х01-44 из 78] (2013-2015) WEB-DLRip от Generalfilm | КПК | Amedia

23 | 12

5.83 ГБ

В этой теме нет новых непрочитанных сообщений. Царство / Reign [S01] (2013-2014) WEB-DLRip | Amedia

777 | 426

9.39 ГБ

В этой теме нет новых непрочитанных сообщений. Царство / Reign [01x01-21 из 22] (2013-2014) WEB-DLRip | Amedia

40 | 10

8.97 ГБ

В этой теме нет новых непрочитанных сообщений. Царство / Reign [01х01-22 из 22] (2013-2014) WEB-DLRip-AVC | Amedia

70 | 55

21.47 ГБ

В этой теме нет новых непрочитанных сообщений. Царство / Reign [01х01-18 из 22] (2013-2014) WEB-DLRip-AVC | Amedia

10 | 74

17.56 ГБ

В этой теме нет новых непрочитанных сообщений. Царство / Reign [01x01-20 из 22] (2013-2014) WEB-DLRip | Amedia

53 | 295

8.53 ГБ




Вы не можете начинать темы
Вы не можете отвечать на сообщения
Вы не можете редактировать свои сообщения
Вы не можете удалять свои сообщения
Вы не можете добавлять вложения

Перейти:  
Для Мосгорсуда, Роскомнадзора и рекламодателей: mosgorsud-torrent[собачка]yandex.ru
 Вход
ppkBB3cker v.2 © 2008-2014 @ PPK
[ Time : 0.130s | 16 Queries | GZIP : Off ]

Торрент трекер RUTOR.IN, Не можете зайти на rutor.org? Какой новый адрес рутор? Какое зеркало рутор? Не работает rutor.org и зеркала? Тогда наш торрент специально для вас. Rutor.in неофициальное зеркало rutor. В случае если у Вас заблокирован rutor или вдруг Вы не можете на него зайти, то Вы без труда сможете скачать бесплатно и без рекламы последние новинки кино, игр, сериалов и прочего у нас, на Rutor.in. Не нужно использовать прокси, чтобы зайти на рутор, достаточно воспользоваться нашим ресурсом. Все новые фильмы, игры, сериалы, книги и музыка за 2013 и 2014 годы через торрент бесплатно. Скачивайте фильмы в хорошем качестве, игры для пк, xbox, playstation без регистрации. У нас вы найдете новые Зарубежные сериалы и Русские сериалы 2013, 2014, 2015 годов. Оставайтесь с нами, качайте любимые фильмы, игры, сериалы, книги и музыку.