img image001 image001 image001 image001 image001 image001 image001 image001 image001 image001 image001 image001 image001 image001 image001

Planets Sun Sun Sun
Статистика раздачи
Автор: Nickolas3434 | Размер: 1.48 ГБ | Добавлен: 28 июн 2014
Раздают: 96    Качают: 29
Скачать торрент
Скачать торрент
Описание торрента

СообщениеДобавлено: 28 июн 2014 

Информация о фильме
Название: Воскрешение
Оригинальное название: Resurrection
Год выпуска: 2014
Жанр: Фэнтези, драма
Режиссер: Дэниэл Эттиэс, Кевин Даулинг, Чарльз МакДугалл
В ролях: Самира Армстронг, Мэтт Крэвен, Омар Эппс, Фрэнсис Фишер, Лэндон Хименес, Сэм Хэзелдайн, Марк Хилдрет, Кертвуд Смит, Трэвис Янг, Кевин Сайзмор, Тэмлин Томита, Эйприл Биллингсли, Майкл Хардинг, Джейсон Сосьер, Гари Викс

О фильме:
Люди, живущие в маленьком городке сталкиваются с очень необычным явлением: их родные и близкие вновь возвращаются после своей смерти. Среди таких возвратившихся оказывается и маленький восьмилетний мальчик, который утонул еще три десятка лет назад. Его обнаружили в Китае, после чего иммиграционная служба вернула его домой. Каково же было удивление местного шерифа, жена которого утонула. Именно ее и пытался спасти этот самый мальчик. В чем же кроется отгадка этой мистической истории?



Страна: США
Студия: ABC Studios, Brillstein Entertainment Partners, Plan B Entertainment
Продолжительность: 8 х ~00:42:00
Перевод: Профессиональный (многоголосый, закадровый) [NewStudio]

Файл
Формат: MP4
Качество: WEB-DLRip | КПК
Видео: MPEG-4 AVC (x264), 640x360, ~500 kbps, 23.976 fps
Аудио: AAC LC, 48.0 KHz, 2 ch, 128 Kbps
Субтитры: Нет

Семпл


Complete name : E:KinoVoskreshenie.AVC.WEB-DLRip.KPK.GeneralfilmVoskreshenie.S01.2014.AVC.WEB-DLRip.KPK.NS.GeneralfilmVoskreshenie.s01e02.2014.AVC.WEB-DLRip.KPK.NS.Generalfilm.mp4
Format : MPEG-4
Format profile : Base Media
Codec ID : isom
File size : 183 MiB
Duration : 40mn 30s
Overall bit rate mode : Variable
Overall bit rate : 631 Kbps
Encoded date : UTC 2014-06-02 06:39:06
Tagged date : UTC 2014-06-02 06:39:06

Video
ID : 1
Format : AVC
Format/Info : Advanced Video Codec
Format profile : Baseline@L4.1
Format settings, CABAC : No
Format settings, ReFrames : 6 frames
Codec ID : avc1
Codec ID/Info : Advanced Video Coding
Duration : 40mn 30s
Bit rate : 500 Kbps
Maximum bit rate : 3 405 Kbps
Width : 640 pixels
Height : 360 pixels
Display aspect ratio : 16:9
Frame rate mode : Constant
Frame rate : 23.976 fps
Color space : YUV
Chroma subsampling : 4:2:0
Bit depth : 8 bits
Scan type : Progressive
Bits/(Pixel*Frame) : 0.091
Stream size : 145 MiB (79%)
Writing library : x264 core 119 r2106 07efeb4
Encoding settings : cabac=0 / ref=6 / deblock=1:-1:-1 / analyse=0x1:0x111 / me=umh / subme=7 / psy=1 / psy_rd=1.00:0.00 / mixed_ref=0 / me_range=16 / chroma_me=1 / trellis=1 / 8x8dct=0 / cqm=0 / deadzone=21,11 / fast_pskip=0 / chroma_qp_offset=-2 / threads=3 / sliced_threads=0 / nr=0 / decimate=1 / interlaced=0 / bluray_compat=0 / constrained_intra=0 / bframes=0 / weightp=0 / keyint=250 / keyint_min=23 / scenecut=40 / intra_refresh=0 / rc_lookahead=60 / rc=2pass / mbtree=1 / bitrate=500 / ratetol=1.0 / qcomp=0.60 / qpmin=0 / qpmax=69 / qpstep=4 / cplxblur=20.0 / qblur=0.5 / ip_ratio=1.40 / aq=1:1.00
Encoded date : UTC 2014-06-02 06:39:06
Tagged date : UTC 2014-06-02 06:40:40

Audio
ID : 2
Format : AAC
Format/Info : Advanced Audio Codec
Format profile : LC
Codec ID : 40
Duration : 40mn 30s
Bit rate mode : Variable
Bit rate : 128 Kbps
Maximum bit rate : 148 Kbps
Channel count : 2 channels
Channel positions : Front: L R
Sampling rate : 48.0 KHz
Compression mode : Lossy
Stream size : 37.1 MiB (20%)
Encoded date : UTC 2014-06-02 06:40:38
Tagged date : UTC 2014-06-02 06:40:40

Релиз от:



   Похожие торренты   Торрент   Размер 
В этой теме нет новых непрочитанных сообщений. Воскрешение / Resurrection [S01-02] (2014-2015) WEB-DLRip от Generalfilm | КПК | NewStudio

17 | 7

3.93 ГБ

В этой теме нет новых непрочитанных сообщений. Воскрешение / Resurrection [02x01-09 из 13] (2014) WEB-DLRip от GeneralFilm | NewStudio

47 | 98

6.19 ГБ

В этой теме нет новых непрочитанных сообщений. Воскрешение / Resurrection [02x01 из 13] (2014) WEB-DLRip | NewStudio от Generalfilm

130 | 6

702.15 МБ

В этой теме нет новых непрочитанных сообщений. Воскрешение / Resurrection [02x01-08 из 13] (2014) WEB-DLRip от GeneralFilm | NewStudio

31 | 77

5.5 ГБ

В этой теме нет новых непрочитанных сообщений. Воскрешение / Resurrection [S01] (2014) WEB-DLRip | NewStudio

47 | 18

4.3 ГБ

В этой теме нет новых непрочитанных сообщений. Воскрешение / Resurrection [02x01 из 13] (2014) WEB-DLRip | NewStudio

329 | 15

549.61 МБ

В этой теме нет новых непрочитанных сообщений. Воскрешение / Resurrection [01х01-04 из 08] (2014) WEB-DLRip | NewStudio

595 | 759

2.15 ГБ




Вы не можете начинать темы
Вы не можете отвечать на сообщения
Вы не можете редактировать свои сообщения
Вы не можете удалять свои сообщения
Вы не можете добавлять вложения

Перейти:  
Для Мосгорсуда, Роскомнадзора и рекламодателей: mosgorsud-torrent[собачка]yandex.ru
 Вход
ppkBB3cker v.2 © 2008-2014 @ PPK
[ Time : 0.051s | 14 Queries | GZIP : Off ]

Торрент трекер RUTOR.IN, Не можете зайти на rutor.org? Какой новый адрес рутор? Какое зеркало рутор? Не работает rutor.org и зеркала? Тогда наш торрент специально для вас. Rutor.in неофициальное зеркало rutor. В случае если у Вас заблокирован rutor или вдруг Вы не можете на него зайти, то Вы без труда сможете скачать бесплатно и без рекламы последние новинки кино, игр, сериалов и прочего у нас, на Rutor.in. Не нужно использовать прокси, чтобы зайти на рутор, достаточно воспользоваться нашим ресурсом. Все новые фильмы, игры, сериалы, книги и музыка за 2013 и 2014 годы через торрент бесплатно. Скачивайте фильмы в хорошем качестве, игры для пк, xbox, playstation без регистрации. У нас вы найдете новые Зарубежные сериалы и Русские сериалы 2013, 2014, 2015 годов. Оставайтесь с нами, качайте любимые фильмы, игры, сериалы, книги и музыку.