img image001 image001 image001 image001 image001 image001 image001 image001 image001 image001 image001 image001 image001 image001 image001

Planets Sun Sun Sun
Статистика раздачи
Автор: Nickolas3434 | Размер: 7.42 ГБ | Добавлен: 05 июл 2014
Раздают: 56    Качают: 30
Скачать торрент
Скачать торрент
Описание торрента

СообщениеДобавлено: 05 июл 2014 

Информация о фильме
Название: Власть в ночном городе
Оригинальное название: Power
Год выхода: 2014
Жанр: Драма, Криминал
Режиссер: Джон Дэвид Коулз, Энтони Хемингуэй, Джордж Тиллман мл.
В ролях: Луис Рамос, Адам Хасс, Люси Уолтерс, Винисиус Мачадо, Лесли Лопез, Кэтрин Нардуччи, Шэйн Джонсон, Дж.Р. Рамирез, Омари Хардвик, Лела Лорен

О фильме:
Заработав немало денег на нелегальной торговле наркотиками, хозяин ночного клуба планирует легализировать свой капитал. Он хочет занять достойное место в высших слоях нью-йоркской элиты, куда закрыт доступ всякого рода драгдилерам. Безусловно, деньги и власть в ночном городе неразделимые понятия, но нужна ещё определенная респектабельность и репутация, позволяющие вполне официально управлять городом и влиять на ход событий.
01. Not Exactly... / Не совсем ...
02. Whoever He Is / Кем бы он ни был
03. This Is Real / Это реально
04. Who Are You? / Кто ты?
05. I Gotta Go / Я должен идти
06. Who You With? / Ты с кем?
07. Loyalty / Лояльность
08. Best Laid Plans

Общее
Уникальный идентификатор : 193741979287601253557308686476155218531 (0x91C159128FE20158B69F1222F7E6EA63)
Полное имя : Power.S01.720p.WEB-DL.Rus.Eng.HDCLUBPower.S01E03.720p.WEB-DL.Rus.Eng.HDCLUB.mkv
Формат : Matroska
Версия формата : Version 4 / Version 2
Размер файла : 1,92 Гбайт
Продолжительность : 56 м.
Общий поток : 4857 Кбит/сек
Название фильма : Power S01E03 (2014) - This Is Real
Дата кодирования : UTC 2014-07-03 17:32:56
Программа кодирования : mkvmerge v6.6.0 ('The Edge Of The In Between') built on Dec 1 2013 17:55:00
Библиотека кодирования : libebml v1.3.0 + libmatroska v1.4.1

Видео
Идентификатор : 1
Формат : AVC
Формат/Информация : Advanced Video Codec
Профиль формата : High@L3.1
Параметр CABAC формата : Нет
Параметр ReFrames формата : 2 кадра
Параметр GOP формата : N=1
Идентификатор кодека : V_MPEG4/ISO/AVC
Продолжительность : 56 м.
Битрейт : 3992 Кбит/сек
Ширина : 1280 пикселей
Высота : 716 пикселей
Соотношение сторон : 16:9
Режим частоты кадров : Постоянный
Частота кадров : 23,976 кадра/сек
Цветовое пространство : YUV
Субдискретизация насыщенности : 4:2:0
Битовая глубина : 8 бит
Тип развёртки : Прогрессивная
Бит/(Пиксели*Кадры) : 0.182
Размер потока : 1,57 Гбайт (82%)
Заголовок : Release for HDCLUB
Язык : English
Default : Да
Forced : Нет
Основные цвета : BT.709
Характеристики трансфера : BT.709
Коэффициенты матрицы : BT.709

Аудио #1
Идентификатор : 2
Формат : AC-3
Формат/Информация : Audio Coding 3
Расширение режима : CM (complete main)
Параметр Endianness формата : Big
Идентификатор кодека : A_AC3
Продолжительность : 56 м.
Вид битрейта : Постоянный
Битрейт : 384 Кбит/сек
Каналы : 6 каналов
Расположение каналов : Front: L C R, Side: L R, LFE
Частота : 48,0 КГц
Битовая глубина : 16 бит
Метод сжатия : С потерями
Размер потока : 155 Мбайт (8%)
Заголовок : DD 5.1 @ 384 kbps - Amedia
Язык : Russian
Default : Да
Forced : Нет

Аудио #2
Идентификатор : 3
Формат : AC-3
Формат/Информация : Audio Coding 3
Расширение режима : CM (complete main)
Параметр Endianness формата : Big
Идентификатор кодека : A_AC3
Продолжительность : 56 м.
Вид битрейта : Постоянный
Битрейт : 384 Кбит/сек
Каналы : 6 каналов
Расположение каналов : Front: L C R, Side: L R, LFE
Частота : 48,0 КГц
Битовая глубина : 16 бит
Метод сжатия : С потерями
Размер потока : 155 Мбайт (8%)
Заголовок : DD 5.1 @ 384 kbps - Original
Язык : English
Default : Нет
Forced : Нет

Текст #1
Идентификатор : 4
Формат : UTF-8
Идентификатор кодека : S_TEXT/UTF8
Идентификатор кодека/Информация : UTF-8 Plain Text
Заголовок : SRT @ Amedia
Язык : Russian
Default : Нет
Forced : Нет

Текст #2
Идентификатор : 5
Формат : UTF-8
Идентификатор кодека : S_TEXT/UTF8
Идентификатор кодека/Информация : UTF-8 Plain Text
Заголовок : SRT @ Original SDH
Язык : English
Default : Нет
Forced : Нет

Раздача ведётся путём добавления новых серий; при каждом добавлении создаётся новый торрент. Чтобы начать докачку новой серии, пользователям необходимо сделать следующее:
(1) остановить скачивание,
(2) удалить старый торрент у себя из клиента (старые серии удалять не надо),
(3) скачать новый торрент и запустить его у себя в клиенте вместо старого, при этом указать клиенту путь в старую папку куда и должно происходить скачивание новых серий.

Ваш клиент при этом должен произвести хеширование (проверку) старой папки (если не производит сам - помогите ему сделать это), и будет докачивать только те серии которых у вас ещё нет. Старые серии при этом не удаляются, а продолжают раздаваться!

Eсли вы уже удалили старые серии, то предотвратить повторную закачку старых серий можно, отжав галочку в соответствующих местах при запуске нового торрента. По возможности, желательно не удалять старые серии как можно дольше чтобы релизёр не столько продолжал раздавать старые серии, а смог сконцентрироваться на новых.



Страна: США
Продолжительность: ~ 00:55:00
Перевод: Профессиональный (многоголосый закадровый) Amedia

Файл
Кодек: x264
Качество: WEB-DL 720p
Видео: 1280x716 at 23.976 fps, MPEG-4 AVC, ~4000 kbps avg
Звук:
Аудио 1: Russian: 48 kHz, AC3, 3/2 (L,C,R,l,r) + LFE ch, ~384.00 kbps avg |Многоголосый закадровый, Amedia|
Аудио 2: English: 48 kHz, AC3, 3/2 (L,C,R,l,r) + LFE ch, ~384.00 kbps avg
Субтитры: Русские, английские



Релиз от: by Pro_Rock_



   Похожие торренты   Торрент   Размер 
В этой теме нет новых непрочитанных сообщений. Власть в ночном городе / Power [01x01] (2014) WEB-DL 720p от HDClub

48 | 4

1.91 ГБ

В этой теме нет новых непрочитанных сообщений. Власть в ночном городе / Power [s02] (2015) WEB-DL 1080p от HDClub | Amedia

59 | 315

23.38 ГБ

В этой теме нет новых непрочитанных сообщений. Власть в ночном городе / Power [01x01-05 из 08] (2014) HDTVRip от qqss44 | Amedia

413 | 388

3.16 ГБ

В этой теме нет новых непрочитанных сообщений. Власть в ночном городе / Power [01x01-04 из 08] (2014) WEB-DLRip от qqss44 | Amedia

72 | 47

2.52 ГБ

В этой теме нет новых непрочитанных сообщений. Власть в ночном городе / Power [01x01-04 из 08] (2014) HDTVRip от qqss44 | Amedia

136 | 125

2.52 ГБ

В этой теме нет новых непрочитанных сообщений. Власть в ночном городе / Power [01x01-04 из 08] (2014) HDTV 1080i | Amedia

68 | 119

7.6 ГБ

В этой теме нет новых непрочитанных сообщений. Власть в ночном городе / Power [01x01 из 08] (2014) HDTVRip-AVC от qqss44 | Amedia

50 | 10

948.01 МБ




Вы не можете начинать темы
Вы не можете отвечать на сообщения
Вы не можете редактировать свои сообщения
Вы не можете удалять свои сообщения
Вы не можете добавлять вложения

Перейти:  
Для Мосгорсуда, Роскомнадзора и рекламодателей: mosgorsud-torrent[собачка]yandex.ru
 Вход
ppkBB3cker v.2 © 2008-2014 @ PPK
[ Time : 0.106s | 15 Queries | GZIP : Off ]

Торрент трекер RUTOR.IN, Не можете зайти на rutor.org? Какой новый адрес рутор? Какое зеркало рутор? Не работает rutor.org и зеркала? Тогда наш торрент специально для вас. Rutor.in неофициальное зеркало rutor. В случае если у Вас заблокирован rutor или вдруг Вы не можете на него зайти, то Вы без труда сможете скачать бесплатно и без рекламы последние новинки кино, игр, сериалов и прочего у нас, на Rutor.in. Не нужно использовать прокси, чтобы зайти на рутор, достаточно воспользоваться нашим ресурсом. Все новые фильмы, игры, сериалы, книги и музыка за 2013 и 2014 годы через торрент бесплатно. Скачивайте фильмы в хорошем качестве, игры для пк, xbox, playstation без регистрации. У нас вы найдете новые Зарубежные сериалы и Русские сериалы 2013, 2014, 2015 годов. Оставайтесь с нами, качайте любимые фильмы, игры, сериалы, книги и музыку.