img image001 image001 image001 image001 image001 image001 image001 image001 image001 image001 image001 image001 image001 image001 image001

Planets Sun Sun Sun
Статистика раздачи
Автор: Nickolas3434 | Размер: 4.37 ГБ | Добавлен: 10 июл 2014
Раздают: 49    Качают: 65
Скачать торрент
Скачать торрент
Описание торрента

СообщениеДобавлено: 10 июл 2014 

Информация о фильме
Название: Мэнсфилд Парк
Оригинальное название: Mansfield Park
Год выхода: 1983
Жанр: драма, мелодрама
Режиссер: Дэвид Гайлз
В ролях: Анна Мэсси, Анджела Плезенс, Сильвестра Ле Тузель, Николас Фэррел, Джеки Смит-Вуд, Роберт Барбеидж, Горден Кэйи, Сьюзэн Эдмонстоун, Невилл Филлипс, Снафф

О фильме:
Классическая история любви по роману Джейн Остин. «Мэнсфилд Парк» — великолепная загородная резиденция сэра Томаса Бертрама. В этом бастионе высшей британской аристократии 18 века проживает его семья.

И здесь же воспитывается Фанни Прайс, бедная родственница Бертрамов. Родственники никогда не упускают случая напомнить ей о ее истинном положении в семье. Лишь кузен Эдмунд относится к ней с любовью и заботой. Он один ценит ее скромность, терпение, доброту и силу характера. Но сможет ли Фанни завоевать должное положение и в обществе и в сердце мужчины своей мечты?

Страна: Великобритания
Студия: BBC
Продолжительность: ~00:50:00 серия
Перевод: Профессиональный (многоголосый, закадровый)

Файл
Кодек: XviD / AC3
Качество: DVDRip
Видео: MPEG4, XviD, 640x480 (4:3), 25.000 fps, 1 862 Kbps (0.242 bit/pixel)
Звук: AC-3, 48.0 KHz, 2 ch, 192 Kbps, CBR (Russian)

General
Complete name : /Mansfield Park_1983_BBC_mini/Mansfield Park_1983_BBC_1_of_6.avi
Format : AVI
Format/Info : Audio Video Interleave
File size : 746 MiB
Duration : 50mn 37s
Overall bit rate : 2 061 Kbps
Writing application : VirtualDubMod 1.5.4.1 (build 2178/release)
Writing library : VirtualDubMod build 2178/release

Video
ID : 0
Format : MPEG-4 Visual
Format profile : Advanced Simple@L5
Format settings, BVOP : 1
Format settings, QPel : No
Format settings, GMC : No warppoints
Format settings, Matrix : Custom
Codec ID : XVID
Codec ID/Hint : XviD
Duration : 50mn 37s
Bit rate : 1 862 Kbps
Width : 640 pixels
Height : 480 pixels
Display aspect ratio : 4:3
Frame rate : 25.000 fps
Color space : YUV
Chroma subsampling : 4:2:0
Bit depth : 8 bits
Scan type : Progressive
Compression mode : Lossy
Bits/(Pixel*Frame) : 0.242
Stream size : 674 MiB (90%)
Writing library : XviD 1.2.0.dev47 (UTC 2006-11-01)

Audio
ID : 1
Format : AC-3
Format/Info : Audio Coding 3
Mode extension : CM (complete main)
Format settings, Endianness : Big
Codec ID : 2000
Duration : 50mn 36s
Bit rate mode : Constant
Bit rate : 192 Kbps
Channel(s) : 2 channels
Channel positions : Front: L R
Sampling rate : 48.0 KHz
Bit depth : 16 bits
Compression mode : Lossy
Stream size : 69.5 MiB (9%)
Alignment : Split accross interleaves
Interleave, duration : 96 ms (2.40 video frames)
Interleave, preload duration : 96 ms
Language : Russian



   Похожие торренты   Торрент   Размер 
В этой теме нет новых непрочитанных сообщений. Мэнсфилд Парк / Mansfield Park (1999) DVDRip

45 | 18

1.46 ГБ

В этой теме нет новых непрочитанных сообщений. Мэнсфилд Парк / Mansfield Park (2007) HDRip от Scarabey | P

20 | 4

743.4 МБ

В этой теме нет новых непрочитанных сообщений. Мэнсфилд Парк / Mansfield Park (2007) HDRip от Scarabey | P

91 | 17

1.44 ГБ

В этой теме нет новых непрочитанных сообщений. Мэнсфилд Парк / Mansfield Park (2007) HDRip от YaltaLavr | P

18 | 2

1.37 ГБ

В этой теме нет новых непрочитанных сообщений. Мэнсфилд парк / Mansfield Park (1999) BDRip 1080p от HDLine | P

62 | 14

7.95 ГБ

В этой теме нет новых непрочитанных сообщений. Машина Джейн Мэнсфилд / Jayne Mansfield's Car (2012) HDRip | Лицензия

480 | 210

1.37 ГБ

В этой теме нет новых непрочитанных сообщений. Машина Джейн Мэнсфилд / Jayne Mansfield's Car (2012) HDRip | Лицензия

229 | 63

2.06 ГБ




Вы не можете начинать темы
Вы не можете отвечать на сообщения
Вы не можете редактировать свои сообщения
Вы не можете удалять свои сообщения
Вы не можете добавлять вложения

Перейти:  
 Вход
ppkBB3cker v.2 © 2008-2014 @ PPK
[ Time : 0.039s | 16 Queries | GZIP : Off ]

cron