img image001 image001 image001 image001 image001 image001 image001 image001 image001 image001 image001 image001 image001 image001 image001

Planets Sun Sun Sun
Статистика раздачи
Автор: Nickolas3434 | Размер: 3.42 ГБ | Добавлен: 11 июл 2014
Раздают: 67    Качают: 63
Скачать торрент
Скачать торрент
Описание торрента

СообщениеДобавлено: 11 июл 2014 

Информация о фильме
Название: Он так и знал
Оригинальное название: He Knew He Was Right
Год выхода: 2004
Жанр: драма
Режиссер: Том Вон / Tom Vaughan
В ролях: Лора Фрейзер, Джеффри Палмер, Кристина Коул, Анна Мэсси, Джеральдин Джеймс, Стивен Кэмпбелл Мур, Мэгги Оллереншоу, Рэймонд Култхард, Дэвид Теннант, Клоди Блейкли, Фенелла Вулгар, Рон Кук, Билл Найи, Кэролайн Мартин, Эми Марстон, Джоэнна Дэвид, Джейн Лапотэйр, Пэтси Палмер, Мэттью Гуд, Стефен Бересфорд, Кэти МакГиннесс, Элисон Скилбек, Сара Кроуден, Шинед Мэтьюз, Кейт Элдертон, Николас Асбари, Морин Беннетт, Саймон Дэй, Билл Муди, Полли Мур, Саймон Пэйсли Дэй, Крэйг Паркинсон, Невилл Филлипс, Линн Фарли, Джон Элдертон

О фильме:
Луис и Эмили Тревельян — «золотая» супружеская пара. Очаровательные, красивые, гордые родители маленького сына. Но когда крестный отец Эмили полковник Осборн начинает навещать ее гораздо чаще, чем этого требуют приличия, Луис считает своим долгом предостеречь жену. Уязвленная недоверием Эмили резко возражает. Супружеская идиллия рушится, и осколки былого счастья склеить практически невозможно.
Официальный сайт

Страна: Великобритания
Студия: BBC One
Продолжительность: ~00:59:00 серия
Перевод: Профессиональный (многоголосый, закадровый)

Файл
Кодек: DivX / AC3
Качество: DVDRip
Видео: MPEG4, DivX 5, 720x416 (16:9), 29.970 fps, 1 393 Kbps (0.155 bit/pixel)
Звук: AC-3, 48.0 KHz, 2 ch, 192 Kbps, CBR (Russian)

General
Complete name : /On.tak.i.znal(4.iz.4).2004.DivX.DVDRip/On.tak.i.znal.01.avi
Format : AVI
Format/Info : Audio Video Interleave
File size : 701 MiB
Duration : 59mn 1s
Overall bit rate : 1 659 Kbps
Writing application : VirtualDubMod 1.5.4.1 (build 2178/release)
Writing library : VirtualDubMod build 2178/release

Video
ID : 0
Format : MPEG-4 Visual
Format settings, BVOP : 1
Format settings, QPel : No
Format settings, GMC : No warppoints
Format settings, Matrix : Default (H.263)
Muxing mode : Packed bitstream
Codec ID : DX50
Codec ID/Hint : DivX 5
Duration : 59mn 1s
Bit rate : 1 393 Kbps
Width : 720 pixels
Height : 416 pixels
Display aspect ratio : 1.731
Frame rate : 29.970 fps
Color space : YUV
Chroma subsampling : 4:2:0
Bit depth : 8 bits
Scan type : Progressive
Compression mode : Lossy
Bits/(Pixel*Frame) : 0.155
Stream size : 588 MiB (84%)
Writing library : DivX 6.6.1.4

Audio
ID : 1
Format : AC-3
Format/Info : Audio Coding 3
Mode extension : CM (complete main)
Format settings, Endianness : Big
Codec ID : 2000
Duration : 59mn 1s
Bit rate mode : Constant
Bit rate : 192 Kbps
Channel(s) : 2 channels
Channel positions : Front: L R
Sampling rate : 48.0 KHz
Bit depth : 16 bits
Compression mode : Lossy
Stream size : 81.1 MiB (12%)
Alignment : Split accross interleaves
Language : Russian



   Похожие торренты   Торрент   Размер 
В этой теме нет новых непрочитанных сообщений. Человек, который слишком мало знал / The Man Who Knew Too Little (1997) DVDRip

10 | 6

1.32 ГБ

В этой теме нет новых непрочитанных сообщений. Человек, который слишком много знал / The Man Who Knew Too Much (1956) DVDRip

112 | 10

1.38 ГБ

В этой теме нет новых непрочитанных сообщений. Развод в большом городе / What Maisie Knew (2012) HDRip | L1

137 | 13

1.46 ГБ

В этой теме нет новых непрочитанных сообщений. Развод в большом городе / What Maisie Knew (2012) HDRip | Р

30 | 3

1.37 ГБ

В этой теме нет новых непрочитанных сообщений. Развод в большом городе / What Maisie Knew (2012) HDRip | L2

8 | 3

1.46 ГБ

В этой теме нет новых непрочитанных сообщений. Развод в большом городе / What Maisie Knew (2012) HDRip от Scarabey

66 | 20

1.44 ГБ

В этой теме нет новых непрочитанных сообщений. Человек, который познал бесконечность / The Man Who Knew Infinity (2015) HDRip | L

2840 | 185

1.46 ГБ




Вы не можете начинать темы
Вы не можете отвечать на сообщения
Вы не можете редактировать свои сообщения
Вы не можете удалять свои сообщения
Вы не можете добавлять вложения

Перейти:  
Для Мосгорсуда, Роскомнадзора и рекламодателей: mosgorsud-torrent[собачка]yandex.ru
 Вход
ppkBB3cker v.2 © 2008-2014 @ PPK
[ Time : 0.033s | 16 Queries | GZIP : Off ]

Торрент трекер RUTOR.IN, Не можете зайти на rutor.org? Какой новый адрес рутор? Какое зеркало рутор? Не работает rutor.org и зеркала? Тогда наш торрент специально для вас. Rutor.in неофициальное зеркало rutor. В случае если у Вас заблокирован rutor или вдруг Вы не можете на него зайти, то Вы без труда сможете скачать бесплатно и без рекламы последние новинки кино, игр, сериалов и прочего у нас, на Rutor.in. Не нужно использовать прокси, чтобы зайти на рутор, достаточно воспользоваться нашим ресурсом. Все новые фильмы, игры, сериалы, книги и музыка за 2013 и 2014 годы через торрент бесплатно. Скачивайте фильмы в хорошем качестве, игры для пк, xbox, playstation без регистрации. У нас вы найдете новые Зарубежные сериалы и Русские сериалы 2013, 2014, 2015 годов. Оставайтесь с нами, качайте любимые фильмы, игры, сериалы, книги и музыку.