img image001 image001 image001 image001 image001 image001 image001 image001 image001 image001 image001 image001 image001 image001 image001

Planets Sun Sun Sun
Статистика раздачи
Автор: Nickolas3434 | Размер: 3.89 ГБ | Добавлен: 25 июл 2014
Раздают: 103    Качают: 28
Скачать торрент
Скачать торрент
Описание торрента

СообщениеДобавлено: 25 июл 2014 


Страна: Россия / Нон-стоп Продакшн, ВГТРК

Жанр: драма, детектив
Год выпуска: 2014
Продолжительность: 04:05:00

Перевод: Не требуется
Cубтитры: нет
Оригинальная аудиодорожка: русский

Режиссер: Владимир Хотиненко

В ролях: Максим Матвеев, Антон Шагин, Сергей Маковецкий, Владимир Зайцев, Евгений Ткачук, Алексей Кирсанов, Мария Луговая, Иванна Петрова, Надежда Маркина, Игорь Костолевский...

Описание: По одноименному роману Ф.М.Достоевского. Конец 19-го века. В губернском городе N происходит серия загадочных убийств. На место преступления приезжает столичный следователь Горемыкин. Поиски убийц приводят его к неожиданному выводу — в городе создан революционный кружок, в котором состоят два молодых человека, недавно вернувшиеся из Швейцарии.




Качество: DVDRip-AVC / DVD9 R5 - лицензионный диск от "Start Up"

Формат: MKV

Видео: 720x576@1024x576 (16:9), 25.000 fps, MPEG-4 AVC ~ 1807 kbps avg, ~ 0.174 bit/pixel
Аудио: 48 kHz, Dolby AC3, 6 ch, 448 kbps, русский

Пояснение: В означенном лицензионном DVD было представлено 2 выпуска, а не 4 серии, как нам показывают предыдущие релизеры этого фильма, издатель решил так.

Раздача от:

Общее
Полное имя : Besy.2014.O.DVDRip-AVC_[New-Team]_by_avproh2.mkv
Формат : Matroska
Версия формата : Version 2
Размер файла : 2,01 Гбайт
Продолжительность : 2 ч. 7 м.
Общий поток : 2256 Кбит/сек
Дата кодирования : UTC 2014-07-22 06:29:22
Программа кодирования : mkvmerge v6.1.0 ('Old Devil') built on Mar 4 2013 09:10:42
Библиотека кодирования : libebml v1.3.0 + libmatroska v1.4.0

Видео
Идентификатор : 1
Формат : AVC
Формат/Информация : Advanced Video Codec
Профиль формата : High@L4.1
Параметр CABAC формата : Да
Параметр ReFrames формата : 8 кадров
Идентификатор кодека : V_MPEG4/ISO/AVC
Продолжительность : 2 ч. 7 м.
Битрейт : 1807 Кбит/сек
Ширина : 720 пикселей
Высота : 576 пикселей
Соотношение сторон : 16:9
Режим частоты кадров : Постоянный
Частота кадров : 25,000 кадров/сек
Стандарт вещания : PAL
Цветовое пространство : YUV
Субдискретизация насыщенности : 4:2:0
Битовая глубина : 8 бит
Тип развёртки : Прогрессивная
Бит/(Пиксели*Кадры) : 0.174
Размер потока : 1,57 Гбайт (78%)
Библиотека кодирования : x264 core 138 r2356 a1d3d17
Настройки программы : cabac=1 / ref=8 / deblock=1:-2:-1 / analyse=0x3:0x113 / me=umh / subme=10 / psy=1 / psy_rd=1.00:0.05 / mixed_ref=1 / me_range=32 / chroma_me=1 / trellis=2 / 8x8dct=1 / cqm=0 / deadzone=21,11 / fast_pskip=0 / chroma_qp_offset=-3 / threads=9 / lookahead_threads=1 / sliced_threads=0 / nr=0 / decimate=0 / interlaced=0 / bluray_compat=0 / constrained_intra=0 / bframes=8 / b_pyramid=2 / b_adapt=2 / b_bias=0 / direct=3 / weightb=1 / open_gop=0 / weightp=2 / keyint=250 / keyint_min=25 / scenecut=40 / intra_refresh=0 / rc=2pass / mbtree=0 / bitrate=1807 / ratetol=1.0 / qcomp=0.60 / qpmin=0 / qpmax=69 / qpstep=4 / cplxblur=20.0 / qblur=0.5 / ip_ratio=1.40 / pb_ratio=1.30 / aq=1:1.00
Default : Да
Forced : Нет

Аудио
Идентификатор : 2
Формат : AC-3
Формат/Информация : Audio Coding 3
Расширение режима : CM (complete main)
Параметр Endianness формата : Big
Идентификатор кодека : A_AC3
Продолжительность : 2 ч. 7 м.
Вид битрейта : Постоянный
Битрейт : 448 Кбит/сек
Каналы : 6 каналов
Расположение каналов : Front: L C R, Side: L R, LFE
Частота : 48,0 КГц
Битовая глубина : 16 бит
Метод сжатия : С потерями
Размер потока : 410 Мбайт (20%)
Default : Да
Forced : Нет





   Похожие торренты   Торрент   Размер 
В этой теме нет новых непрочитанных сообщений. Бесы [01-02 из 02] (2014) DVDRip от New-Team | лицензия

268 | 87

3.89 ГБ

В этой теме нет новых непрочитанных сообщений. Бесы [01-02 из 02] (2014) DVD9 от New-Team | Лицензия

14 | 7

7.67 ГБ

В этой теме нет новых непрочитанных сообщений. Бесы (2002) DVDRip

68 | 5

743.09 МБ

В этой теме нет новых непрочитанных сообщений. Бесы (1992) DVDRip

23 | 4

1.34 ГБ

В этой теме нет новых непрочитанных сообщений. Бесы [01-04 из 04] (2014) SATRip

2410 | 376

3.26 ГБ

В этой теме нет новых непрочитанных сообщений. Бесы [01-04 из 04] (2014) HDTVRip-AVC

249 | 175

2.15 ГБ

В этой теме нет новых непрочитанных сообщений. Бесы [01-04 из 04] (2014) HDTVRip от MediaClub

1771 | 403

3.25 ГБ




Вы не можете начинать темы
Вы не можете отвечать на сообщения
Вы не можете редактировать свои сообщения
Вы не можете удалять свои сообщения
Вы не можете добавлять вложения

Перейти:  
Для Мосгорсуда, Роскомнадзора и рекламодателей: mosgorsud-torrent[собачка]yandex.ru
 Вход
ppkBB3cker v.2 © 2008-2014 @ PPK
[ Time : 0.070s | 16 Queries | GZIP : Off ]

Торрент трекер RUTOR.IN, Не можете зайти на rutor.org? Какой новый адрес рутор? Какое зеркало рутор? Не работает rutor.org и зеркала? Тогда наш торрент специально для вас. Rutor.in неофициальное зеркало rutor. В случае если у Вас заблокирован rutor или вдруг Вы не можете на него зайти, то Вы без труда сможете скачать бесплатно и без рекламы последние новинки кино, игр, сериалов и прочего у нас, на Rutor.in. Не нужно использовать прокси, чтобы зайти на рутор, достаточно воспользоваться нашим ресурсом. Все новые фильмы, игры, сериалы, книги и музыка за 2013 и 2014 годы через торрент бесплатно. Скачивайте фильмы в хорошем качестве, игры для пк, xbox, playstation без регистрации. У нас вы найдете новые Зарубежные сериалы и Русские сериалы 2013, 2014, 2015 годов. Оставайтесь с нами, качайте любимые фильмы, игры, сериалы, книги и музыку.