img image001 image001 image001 image001 image001 image001 image001 image001 image001 image001 image001 image001 image001 image001 image001 image001
Planets Sun Sun Sun
Статистика раздачи
Автор: Nickolas3434 | Размер: 3.89 ГБ | Добавлен: 24 июл 2014
Раздают: 270    Качают: 87
Скачать торрент
Скачать торрент
Описание торрента

СообщениеДобавлено: 24 июл 2014 


Страна: Россия / Нон-стоп Продакшн, ВГТРК

Жанр: драма, детектив
Год выпуска: 2014
Продолжительность: 04:05:00

Перевод: Не требуется
Cубтитры: нет
Оригинальная аудиодорожка: русский

Режиссер: Владимир Хотиненко

В ролях: Максим Матвеев, Антон Шагин, Сергей Маковецкий, Владимир Зайцев, Евгений Ткачук, Алексей Кирсанов, Мария Луговая, Иванна Петрова, Надежда Маркина, Игорь Костолевский...

Описание: По одноименному роману Ф.М.Достоевского. Конец 19-го века. В губернском городе N происходит серия загадочных убийств. На место преступления приезжает столичный следователь Горемыкин. Поиски убийц приводят его к неожиданному выводу — в городе создан революционный кружок, в котором состоят два молодых человека, недавно вернувшиеся из Швейцарии.




Качество: DVDRip / DVD9 R5 - лицензионный диск от "Start Up"

Формат: AVI

Видео: 720x400 (16:9), 25.000 fps, XviD ~ 1800 kbps avg, 0.250 bit/pixel
Аудио: 48 kHz, Dolby AC3, 6 ch, 448 kbps, русский

Пояснение: В означенном лицензионном DVD было представлено 2 выпуска, а не 4 серии как нам показывают предыдущие релизеры этого фильма, издатель решил так.

Раздача от:

Общее
Полное имя : Besy.2014.O.DVDRip_[New-Team]_by_avproh\01.avi
Формат : AVI
Формат/Информация : Audio Video Interleave
Размер файла : 1,87 Гбайт
Продолжительность : 1 ч. 58 м.
Общий поток : 2258 Кбит/сек
Программа кодирования : VirtualDubMod 1.5.10.3 | www.virtualdub-fr.org || (build 2550/release)
Библиотека кодирования : VirtualDubMod build 2550/release

Видео
Идентификатор : 0
Формат : MPEG-4 Visual
Профиль формата : Advanced Simple@L5
Параметр BVOP формата : 1
Параметр QPel формата : Нет
Параметр GMC формата : Без точки перехода
Параметр матрицы формата : Выборочная
Идентификатор кодека : XVID
Идентификатор кодека/Подсказка : XviD
Продолжительность : 1 ч. 58 м.
Битрейт : 1800 Кбит/сек
Ширина : 720 пикселей
Высота : 400 пикселей
Соотношение сторон : 16:9
Частота кадров : 25,000 кадров/сек
Цветовое пространство : YUV
Субдискретизация насыщенности : 4:2:0
Битовая глубина : 8 бит
Тип развёртки : Прогрессивная
Метод сжатия : С потерями
Бит/(Пиксели*Кадры) : 0.250
Размер потока : 1,49 Гбайт (80%)
Библиотека кодирования : XviD 73

Аудио
Идентификатор : 1
Формат : AC-3
Формат/Информация : Audio Coding 3
Расширение режима : CM (complete main)
Параметр Endianness формата : Big
Идентификатор кодека : 2000
Продолжительность : 1 ч. 58 м.
Вид битрейта : Постоянный
Битрейт : 448 Кбит/сек
Каналы : 6 каналов
Расположение каналов : Front: L C R, Side: L R, LFE
Частота : 48,0 КГц
Битовая глубина : 16 бит
Метод сжатия : С потерями
Размер потока : 381 Мбайт (20%)
Выравнивание : Разделение по промежуткам
Продолжительность промежутка : 40 мс. (1,00 видеокадр)
Время предзагрузки промежутка : 500 мс.





   Похожие торренты   Торрент   Размер 
В этой теме нет новых непрочитанных сообщений. Бесы [01-02 из 02] (2014) DVDRip-AVC от New-Team | лицензия

103 | 27

3.89 ГБ

В этой теме нет новых непрочитанных сообщений. Бесы [01-02 из 02] (2014) DVD9 от New-Team | Лицензия

14 | 7

7.67 ГБ

В этой теме нет новых непрочитанных сообщений. Бесы [01-04 из 04] (2014) BDRemux 1080p от OlLanDGroup | Лицензия

6 | 1

17.94 ГБ

В этой теме нет новых непрочитанных сообщений. Бесы [01-04 серии из 04] (2014) BDRip-AVC от KinoHitHD | Лицензия

74 | 13

2.72 ГБ

В этой теме нет новых непрочитанных сообщений. Бесы (2002) DVDRip

67 | 3

743.09 МБ

В этой теме нет новых непрочитанных сообщений. Бесы (1992) DVDRip

23 | 4

1.34 ГБ

В этой теме нет новых непрочитанных сообщений. Бесы [01-04 из 04] (2014) HDTVRip-AVC

249 | 175

2.15 ГБ




Вы не можете начинать темы
Вы не можете отвечать на сообщения
Вы не можете редактировать свои сообщения
Вы не можете удалять свои сообщения
Вы не можете добавлять вложения

Перейти:  
Для Мосгорсуда, Роскомнадзора и рекламодателей: mosgorsud-torrent[собачка]yandex.ru
 Вход
ppkBB3cker v.2 © 2008-2014 @ PPK
[ Time : 0.072s | 17 Queries | GZIP : Off ]

cron