img image001 image001 image001 image001 image001 image001 image001 image001 image001 image001 image001 image001 image001 image001 image001

Planets Sun Sun Sun
Статистика раздачи
Автор: Nickolas3434 | Размер: 8.59 ГБ | Добавлен: 26 июл 2014, 21:38
Раздают: 1439    Качают: 601
Скачать торрент
Скачать торрент
Описание торрента

СообщениеДобавлено: 26 июл 2014, 21:38 

Информация о фильме
Оригинальное название: Прости меня, мама (Бандит)
Год выхода: 2014
Жанр: Драма
Режиссер: Егор Грамматиков
В ролях: Владимир Яглыч, Евгения Туркова, Александра Мареева, Сергей Селин, Алексей Ильин, Кирилл Нагиев, Елена Лотова, Наталья Рычкова, Вячеслав Шихалеев, Олег Соколдынский, Антон Ксенев, Екатерина Александрушкина, Роман Агеев, Николай Точилин, Илья Ильин, Борис Миронов, Юлия Бурова, Денис Давыдов, Василий Щипицын, Дмитрий Медведев, Юрий Тарасов, Сергей Барабаш, Анна Казючиц, Юрий Яфаев, Антон Момот, Денис Старков, Елена Муравьёва, Елена Махова, Анна Ходюш, Алексей Франдетти, Александр Усердин, Антон Васильев (III), Сергей Беляев, Илья Ловкий, Дмитрий Родонов

О фильме:
Действие сериала начинается в сложный для России исторический период — начало 90-х. Главного героя картины осуждают за несовершенное преступление, в наши дни он выходит из тюрьмы и пытается доказать, что был осужден несправедливо…

Страна: Россия
Студия: "Свэлл Фильм"
Продолжительность: 16 х ~ 00:45:00
Язык: Русский

Файл
Кодек: XviD
Качество: WEB-DLRip
Видео: 720x400 (16:9), 25.000 fps, XviD build 50 ~ 1550 kbps avg, 0.226 bit/pixel
Звук: 48 kHz, AC3 Dolby Digital, 2/0 (L,R) ch, ~192 kbps

Семпл

Complete name: Prosti.menia.mama.2014.WEB-DLRipProsti.menia.mama.(09.seriya).2014.WEB-DLRip.avi
Format : AVI
Format/Info : Audio Video Interleave
File size : 550 MiB
Duration : 43mn 32s
Overall bit rate : 1 765 Kbps
Writing application : VirtualDubMod 1.5.10.2 (build 2540/release)
Writing library : VirtualDubMod build 2540/release

Video
ID : 0
Format : MPEG-4 Visual
Format profile : Advanced Simple@L5
Format settings, BVOP : 1
Format settings, QPel : No
Format settings, GMC : No warppoints
Format settings, Matrix : Custom
Codec ID : XVID
Codec ID/Hint : XviD
Duration : 43mn 32s
Bit rate : 1 563 Kbps
Width : 720 pixels
Height : 400 pixels
Display aspect ratio : 16:9
Frame rate : 25.000 fps
Color space : YUV
Chroma subsampling : 4:2:0
Bit depth : 8 bits
Scan type : Progressive
Compression mode : Lossy
Bits/(Pixel*Frame) : 0.217
Stream size : 487 MiB (89%)
Writing library : XviD 1.2.1 (UTC 2008-12-04)

Audio
ID : 1
Format : AC-3
Format/Info : Audio Coding 3
Mode extension : CM (complete main)
Format settings, Endianness : Big
Codec ID : 2000
Duration : 43mn 32s
Bit rate mode : Constant
Bit rate : 192 Kbps
Channel(s) : 2 channels
Channel positions : Front: L R
Sampling rate : 48.0 KHz
Bit depth : 16 bits
Compression mode : Lossy
Stream size : 59.8 MiB (11%)
Alignment : Split accross interleaves
Interleave, duration : 40 ms (1.00 video frame)
Interleave, preload duration : 500 ms





   Похожие торренты   Торрент   Размер 
В этой теме нет новых непрочитанных сообщений. Прости меня, мама / Бандит [01-16 из 16] (2014) WEB-DLRip-AVC от ExKinoRay

472 | 45

9.81 ГБ

В этой теме нет новых непрочитанных сообщений. Прости меня, мама / Бандит [01-04 из 04] (2014) WEB-DLRip-AVC от ExKinoRay

1173 | 377

2.53 ГБ

В этой теме нет новых непрочитанных сообщений. Прости меня, мама / Бандит [01-16 из 16] (2014) WEB-DL 720p от ExKinoRay

116 | 142

13.74 ГБ

В этой теме нет новых непрочитанных сообщений. Прости меня, мама / Бандит [01-16 из 16] (2013) WEB-DL 1080p от MediaClub

123 | 174

26.15 ГБ

В этой теме нет новых непрочитанных сообщений. Мама дарагая! (2014) WEB-DLRip | iTunes

1322 | 36

747.8 МБ

В этой теме нет новых непрочитанных сообщений. Мама дарагая! (2014) WEB-DLRip | iTunes

5289 | 176

1.46 ГБ

В этой теме нет новых непрочитанных сообщений. Мама Люба [01-04 из 04] (2014) WEB-DLRip-AVC от Files-x

135 | 15

2.62 ГБ




Вы не можете начинать темы
Вы не можете отвечать на сообщения
Вы не можете редактировать свои сообщения
Вы не можете удалять свои сообщения
Вы не можете добавлять вложения

Перейти:  
Для Мосгорсуда, Роскомнадзора и рекламодателей: mosgorsud-torrent[собачка]yandex.ru
Настройки
ppkBB3cker v.2 © 2008-2014 @ PPK
[ Time : 0.025s | 18 Queries | GZIP : Off ]
CGP [Extreme] output time : 0.00011s | 0 Queries | GZIP : Off

Торрент трекер RUTOR.IN, Не можете зайти на rutor.org? Какой новый адрес рутор? Какое зеркало рутор? Не работает rutor.org и зеркала? Тогда наш торрент специально для вас. Rutor.in неофициальное зеркало rutor. В случае если у Вас заблокирован rutor или вдруг Вы не можете на него зайти, то Вы без труда сможете скачать бесплатно и без рекламы последние новинки кино, игр, сериалов и прочего у нас, на Rutor.in. Не нужно использовать прокси, чтобы зайти на рутор, достаточно воспользоваться нашим ресурсом. Все новые фильмы, игры, сериалы, книги и музыка за 2013 и 2014 годы через торрент бесплатно. Скачивайте фильмы в хорошем качестве, игры для пк, xbox, playstation без регистрации. У нас вы найдете новые Зарубежные сериалы и Русские сериалы 2013, 2014, 2015 годов. Оставайтесь с нами, качайте любимые фильмы, игры, сериалы, книги и музыку.