img image001 image001 image001 image001 image001 image001 image001 image001 image001 image001 image001 image001 image001 image001 image001

Planets Sun Sun Sun
Статистика раздачи
Автор: Nickolas3434 | Размер: 2.16 ГБ | Добавлен: 27 июл 2014
Раздают: 33    Качают: 9
Скачать торрент
Скачать торрент
Описание торрента

СообщениеДобавлено: 27 июл 2014 

Твин Пикс / Twin Peaks
«A town where everyone knows everyone and nothing is what it seems»



Информация о фильме
Название: Твин Пикс
Оригинальное название: Twin Peaks
Год выхода: 1990
Жанр: Триллер, драма, криминал, детектив
Режиссер: Дэвид Линч, Дайан Китон, Джонатан Сэнгер
В ролях: Кайл МакЛахлан, Майкл Онткин, Шерил Ли, Лара Флинн Бойл, Шерилин Фенн, Рэй Уайз, Мигель Феррер, Дэвид Линч, Билли Зейн, Хезер Грэм, Мэдчен Эмик, Дэна Эшбрук, Ричард Беймер, Уоррен Фрост, Пегги Липтон, Джеймс Маршалл, Эверет МакГилл, Джек Нэнс, Джоан Чен, Кимми Робертсон, Майкл Хорс, Пайпер Лори, Гарри Гоаз, Эрик ДаРе, Уэнди Роби, Расс Тэмблин, Дон С. Дэвис, Крис Малки, Гаррисон Хершбергер, Грэйс Забриски, Катрин Э. Колсон, Йен Бьюкэнэн, Мэри Джо Дешанель, Фрэнк Силва, Кеннет Уэлш, Аль Штробель, Дэвид Патрик Келли, Джон Бойлэн, Виктория Кэтлин


Описание:
Основная сюжетная линия фильма - история расследования специальным агентом ФБР Дейлом Купером загадочного убийства юной школьницы Лоры Палмер, которая, казалось бы, была примерна во всех отношениях. Позднее откроется, что между видимым и реальным была невероятная пропасть. История начинается с известия о находке обнаженного тела, завернутого в полиэтилен и выброшенного волнами на берег озера. В ходе расследования перед внимательными взглядами агента Купера, шерифа Трумена и его помощников проходят разные жители Твин Пикс. Постепенно зритель открывает для себя поражающее многообразие сторон жизни этого, на первый взгляд, тихого и мирного городка: от драматической романтики до леденящего, мистического ужаса. Режиссер картины, Дэвид Линч, позднее скажет в одном из интервью: «Твин Пикс - везде. Это не место. Это состояние".






Страна: США
Студия: Lynch/Frost Productions, Propaganda Films, Spelling Entertainment, Twin Peaks Productions Inc.
Продолжительность: 1 х ~ 01:30:00
Перевод: Профессиональный (многоголосый закадровый) [Sci-Fi], Профессиональный (многоголосый закадровый) [OPT], Авторский одноголосый (Сербин), Авторский одноголосый (Гаврилов), Авторский одноголосый (Савченко)


За дорожки Sci-Fi большое спасибо mahinator123
За дорожки ОРТ и Сербин большое спасибо Chip@lin0
За дорожки Гаврилов и Савченко большое спасибо raydarr
[*]За постер спасибо anestol от Media-Art-Club



Файл
Кодек: XviD
Качество: HDRip
Видео: XviD, ~ 1900 Кбит/с, 23.976 fps, 720X544
Аудио #1: Русский (AC3, 2 ch, 192 Кбит/с) (Sci-Fi)
Аудио #2: Русский (AC3, 2 ch, 192 Кбит/с) (ОРТ)
Аудио #3: Русский (AC3, 2 ch, 192 Кбит/с) (Сербин)
Аудио #4: Русский (AC3, 2 ch, 192 Кбит/с) (Гаврилов)
Аудио #5: Русский (AC3, 2 ch, 192 Кбит/с) (Савченко)
Аудио #6: Английский (AC3, 6 ch, 384 Кбит/с)
Субтитры: нет



00. Происшествие на северо-западе (Пилотная серия)

Общее
Полное имя : F:...Twin.Peaks.S01E01.5xRus.Eng.MediaClub.avi
Формат : AVI
Формат/Информация : Audio Video Interleave
Профиль формата : OpenDML
Размер файла : 2,16 Гбайт
Продолжительность : 1 ч. 34 м.
Общий поток : 3286 Кбит/сек
Программа кодирования : VirtualDubMod 1.5.10.2 (build 2540/release)
Библиотека кодирования : VirtualDubMod build 2540/release

Видео
Идентификатор : 0
Формат : MPEG-4 Visual
Профиль формата : Advanced Simple@L5
Параметр BVOP формата : 2
Параметр QPel формата : Нет
Параметр GMC формата : Без точки перехода
Параметр матрицы формата : Default (MPEG)
Идентификатор кодека : XVID
Идентификатор кодека/Подсказка : XviD
Продолжительность : 1 ч. 34 м.
Битрейт : 1900 Кбит/сек
Ширина : 720 пикселей
Высота : 544 пикселя
Соотношение сторон : 4:3
Частота кадров : 23,976 кадра/сек
Цветовое пространство : YUV
Субдискретизация насыщенности : 4:2:0
Битовая глубина : 8 бит
Тип развёртки : Прогрессивная
Метод сжатия : С потерями
Бит/(Пиксели*Кадры) : 0.202
Размер потока : 1,25 Гбайт (58%)
Библиотека кодирования : XviD 1.2.1 (UTC 2008-12-04)

Аудио #1
Идентификатор : 1
Формат : AC-3
Формат/Информация : Audio Coding 3
Расширение режима : CM (complete main)
Параметр Endianness формата : Big
Идентификатор кодека : 2000
Продолжительность : 1 ч. 34 м.
Вид битрейта : Постоянный
Битрейт : 192 Кбит/сек
Каналы : 2 канала
Расположение каналов : Front: L R
Частота : 48,0 КГц
Битовая глубина : 16 бит
Метод сжатия : С потерями
Размер потока : 129 Мбайт (6%)
Выравнивание : Разделение по промежуткам
Продолжительность промежутка : 42 мс. (1,00 видеокадр)
Время предзагрузки промежутка : 500 мс.
Заголовок : Sci-Fi

Аудио #2
Идентификатор : 2
Формат : AC-3
Формат/Информация : Audio Coding 3
Расширение режима : CM (complete main)
Параметр Endianness формата : Big
Идентификатор кодека : 2000
Продолжительность : 1 ч. 34 м.
Вид битрейта : Постоянный
Битрейт : 192 Кбит/сек
Каналы : 2 канала
Расположение каналов : Front: L R
Частота : 48,0 КГц
Битовая глубина : 16 бит
Метод сжатия : С потерями
Размер потока : 129 Мбайт (6%)
Выравнивание : Разделение по промежуткам
Продолжительность промежутка : 42 мс. (1,00 видеокадр)
Время предзагрузки промежутка : 500 мс.
Заголовок : OPT

Аудио #3
Идентификатор : 3
Формат : AC-3
Формат/Информация : Audio Coding 3
Расширение режима : CM (complete main)
Параметр Endianness формата : Big
Идентификатор кодека : 2000
Продолжительность : 1 ч. 34 м.
Вид битрейта : Постоянный
Битрейт : 192 Кбит/сек
Каналы : 2 канала
Расположение каналов : Front: L R
Частота : 48,0 КГц
Битовая глубина : 16 бит
Метод сжатия : С потерями
Размер потока : 129 Мбайт (6%)
Выравнивание : Разделение по промежуткам
Продолжительность промежутка : 42 мс. (1,00 видеокадр)
Время предзагрузки промежутка : 500 мс.
Заголовок : Сербин

Аудио #4
Идентификатор : 4
Формат : AC-3
Формат/Информация : Audio Coding 3
Расширение режима : CM (complete main)
Параметр Endianness формата : Big
Идентификатор кодека : 2000
Продолжительность : 1 ч. 34 м.
Вид битрейта : Постоянный
Битрейт : 192 Кбит/сек
Каналы : 2 канала
Расположение каналов : Front: L R
Частота : 48,0 КГц
Битовая глубина : 16 бит
Метод сжатия : С потерями
Размер потока : 129 Мбайт (6%)
Выравнивание : Разделение по промежуткам
Продолжительность промежутка : 42 мс. (1,00 видеокадр)
Время предзагрузки промежутка : 500 мс.
Заголовок : Гаврилов

Аудио #5
Идентификатор : 5
Формат : AC-3
Формат/Информация : Audio Coding 3
Расширение режима : CM (complete main)
Параметр Endianness формата : Big
Идентификатор кодека : 2000
Продолжительность : 1 ч. 34 м.
Вид битрейта : Постоянный
Битрейт : 192 Кбит/сек
Каналы : 2 канала
Расположение каналов : Front: L R
Частота : 48,0 КГц
Битовая глубина : 16 бит
Метод сжатия : С потерями
Размер потока : 129 Мбайт (6%)
Выравнивание : Разделение по промежуткам
Продолжительность промежутка : 42 мс. (1,00 видеокадр)
Время предзагрузки промежутка : 500 мс.
Заголовок : Савченко

Аудио #6
Идентификатор : 6
Формат : AC-3
Формат/Информация : Audio Coding 3
Расширение режима : CM (complete main)
Параметр Endianness формата : Big
Идентификатор кодека : 2000
Продолжительность : 1 ч. 34 м.
Вид битрейта : Постоянный
Битрейт : 384 Кбит/сек
Каналы : 6 каналов
Расположение каналов : Front: L C R, Side: L R, LFE
Частота : 48,0 КГц
Битовая глубина : 16 бит
Метод сжатия : С потерями
Размер потока : 258 Мбайт (12%)
Выравнивание : Разделение по промежуткам
Продолжительность промежутка : 42 мс. (1,00 видеокадр)
Время предзагрузки промежутка : 500 мс.
Заголовок : Eng






Когда раздача ведётся путём добавления новых серий, при каждом добавлении создётся новый торрент. Чтобы начать докачку новой серии, пользователям необходимо сделать следующее:

остановить скачивание,

удалить старый торрент у себя из клиента (старые серии удалять не надо),

скачать новый торрент и запустить его у себя в клиенте вместо старого, при этом указать клиенту путь в старую папку, куда и должно происходить скачивание новых серий.

Ваш клиент при этом должен произвести хеширование (проверку) старой папки (если не производит сам - помогите ему сделать это), и будет докачивать только те серии, которых у вас ещё нет. Старые серии при этом не удаляются, а продолжают раздаваться!

Eсли вы уже удалили старые серии, то предотвратить повторную закачку старых серий можно, отжав галочку в соответсвующих местах при запуске нового торрента. По возможности, желательно не удалять старые серии как можно дольше, чтобы релизёр не столько продолжал раздавать старые серии, а смог сконцентрироваться на новых.



Релиз от: |




   Похожие торренты   Торрент   Размер 
В этой теме нет новых непрочитанных сообщений. Твин Пикс / Twin Peaks [S02] (1990-1991) HDRip от MediaClub | P, A

63 | 47

25.71 ГБ

В этой теме нет новых непрочитанных сообщений. Твин Пикс / Twin Peaks [02x01-02 из 22] (1990-1991) HDRip от MediaClub | P, A

9 | 28

3.36 ГБ

В этой теме нет новых непрочитанных сообщений. Твин Пикс / Twin Peaks [S01] (1990) BDRip 720p от MediaClub | P, А

30 | 49

31.85 ГБ

В этой теме нет новых непрочитанных сообщений. Твин Пикс / Twin Peaks [S01-02] (1990) BDRip 720p от MediaClub | P, А

104 | 64

104.54 ГБ

В этой теме нет новых непрочитанных сообщений. Твин Пикс / Twin Peaks [S01] (1990) HDRip от Scarabey | A

149 | 18

5.02 ГБ

В этой теме нет новых непрочитанных сообщений. Твин Пикс / Twin Peaks [S01] (1990) BDRip

94 | 114

7.38 ГБ

В этой теме нет новых непрочитанных сообщений. Твин Пикс / Twin Peaks [S01] (1990) Blu-ray Remux 1080p

7 | 18

90.72 ГБ




Вы не можете начинать темы
Вы не можете отвечать на сообщения
Вы не можете редактировать свои сообщения
Вы не можете удалять свои сообщения
Вы не можете добавлять вложения

Перейти:  
Для Мосгорсуда, Роскомнадзора и рекламодателей: mosgorsud-torrent[собачка]yandex.ru
 Вход
ppkBB3cker v.2 © 2008-2014 @ PPK
[ Time : 0.025s | 18 Queries | GZIP : On ]

Торрент трекер RUTOR.IN, Не можете зайти на rutor.org? Какой новый адрес рутор? Какое зеркало рутор? Не работает rutor.org и зеркала? Тогда наш торрент специально для вас. Rutor.in неофициальное зеркало rutor. В случае если у Вас заблокирован rutor или вдруг Вы не можете на него зайти, то Вы без труда сможете скачать бесплатно и без рекламы последние новинки кино, игр, сериалов и прочего у нас, на Rutor.in. Не нужно использовать прокси, чтобы зайти на рутор, достаточно воспользоваться нашим ресурсом. Все новые фильмы, игры, сериалы, книги и музыка за 2013 и 2014 годы через торрент бесплатно. Скачивайте фильмы в хорошем качестве, игры для пк, xbox, playstation без регистрации. У нас вы найдете новые Зарубежные сериалы и Русские сериалы 2013, 2014, 2015 годов. Оставайтесь с нами, качайте любимые фильмы, игры, сериалы, книги и музыку.