img image001 image001 image001 image001 image001 image001 image001 image001 image001 image001 image001 image001 image001 image001 image001

Planets Sun Sun Sun
Статистика раздачи
Автор: Nickolas3434 | Размер: 4.97 ГБ | Добавлен: 31 июл 2014
Раздают: 123    Качают: 45
Скачать торрент
Скачать торрент
Описание торрента

СообщениеДобавлено: 31 июл 2014 



Информация о фильме
Оригинальное название: Сокровища мертвых
Год выхода: 2002
Жанр: Приключения, боевик
Режиссер: Игорь Шавлак
В ролях: Михаил Мамаев, Светлана Меткина, Владимир Нисков, Алла Ковнир, Игнат Акрачков, Алексей Моисеев, Валерий Гурьев (I), Дилия Рузиева, Елена Елова, Владимир Свешников

О фильме: 1934 год, Западная Сибирь. Группа красноармейцев преследует профессора Звягинцева, исследующего путь к пещере, в которой хранится языческое божество. Этому злому идолу издавна поклоняются северные народы... Спустя многие годы молодые ученые решили пройти путь, указанный их погибшим коллегой. В прошлом студенты-однокашники, в поисках сокровищ они приезжают в Западную Сибирь, но теперь за ними гонится не отряд НКВД, а группа бандитов.



Страна: Россия
Студия: ЮГРА, Централ Партнершип
Продолжительность: 6 х ~ 00:51:00
Язык: Русский

Файл
Кодек: MPEG-2
Качество: DVD-9
Видео: NTSC 4:3 (720x480) VBR
Звук: Русский (Dolby AC3, 2 ch)



Title: DATA
Size: 4.97 Gb ( 5 213 298 KBytes ) - DVD-9
Enabled regions: 1, 2, 3, 4, 5, 6

VTS_01 :
Play Length: 00:00:08
Video: NTSC 4:3 (720x480) VBR

VTS_02 :
Play Length: 00:00:11
Video: NTSC 4:3 (720x480) VBR
Audio:
Not specified (Dolby AC3, 6 ch)
Not specified (Dolby AC3, 6 ch)
Subtitles:
English

VTS_03 :
Play Length: 00:00:16
Video: NTSC 4:3 (720x480) VBR
Audio:
Not specified (Dolby AC3, 2 ch)
Not specified (Dolby AC3, 2 ch)
Subtitles:
Not specified

VTS_04 :
Play Length: 00:51:14
Video: NTSC 4:3 (720x480) VBR
Audio:
Russian (Dolby AC3, 2 ch)

VTS_05 :
Play Length: 00:51:39
Video: NTSC 4:3 (720x480) VBR
Audio:
Russian (Dolby AC3, 2 ch)

VTS_06 :
Play Length: 00:50:19
Video: NTSC 4:3 (720x480) VBR
Audio:
Russian (Dolby AC3, 2 ch)

VTS_07 :
Play Length: 00:50:47
Video: NTSC 4:3 (720x480) VBR
Audio:
Russian (Dolby AC3, 2 ch)

VTS_08 :
Play Length: 00:51:38
Video: NTSC 4:3 (720x480) VBR
Audio:
Russian (Dolby AC3, 2 ch)

VTS_09 :
Play Length: 00:50:08
Video: NTSC 4:3 (720x480) VBR
Audio:
Russian (Dolby AC3, 2 ch)

Menu Video:
NTSC 16:9 (720x480) VBR
Auto Pan&Scan, Auto Letterboxed
Menu Subtitles:
Not specified
Menu English Language Unit :
Root Menu


Общее
Полное имя : D:залитьСОКРОВИЩА МЕРТВЫХVIDEO_TSVTS_04_1.VOB
Формат : MPEG-PS
Размер файла : 829 Мбайт
Продолжительность : 51 м.
Режим общего битрейта : Переменный
Общий поток : 2259 Кбит/сек

Видео
Идентификатор : 224 (0xE0)
Формат : MPEG Video
Версия формата : Version 2
Профиль формата : Main@Main
Параметр BVOP формата : Да
Параметр матрицы формата : Выборочная
Параметр GOP формата : M=3, N=15
Продолжительность : 51 м.
Вид битрейта : Переменный
Битрейт : 2022 Кбит/сек
Максимальный битрейт : 6000 Кбит/сек
Ширина : 352 пикселя
Высота : 480 пикселей
Соотношение сторон : 4:3
Частота кадров : 29,970 кадров/сек
Стандарт вещания : NTSC
Цветовое пространство : YUV
Субдискретизация насыщенности : 4:2:0
Битовая глубина : 8 бит
Тип развёртки : Чересстрочная
Порядок развёртки : Верхнее поле первое
Метод сжатия : С потерями
Бит/(Пиксели*Кадры) : 0.399
TimeCode_FirstFrame : 00:01:32:21
TimeCode_Source : Group of pictures header
Размер потока : 742 Мбайт (90%)

Аудио
Идентификатор : 189 (0xBD)-128 (0x80)
Формат : AC-3
Формат/Информация : Audio Coding 3
Расширение режима : CM (complete main)
Параметр Endianness формата : Big
Режим смешивания : DVD-Video
Продолжительность : 51 м.
Вид битрейта : Постоянный
Битрейт : 192 Кбит/сек
Каналы : 2 канала
Расположение каналов : Front: L R
Частота : 48,0 КГц
Битовая глубина : 16 бит
Метод сжатия : С потерями
Размер потока : 70,4 Мбайт (8%)

Меню






   Похожие торренты   Торрент   Размер 
В этой теме нет новых непрочитанных сообщений. Сокровища мёртвых [01-06 из 6] (2002) DVDRip

30 | 7

4.1 ГБ

В этой теме нет новых непрочитанных сообщений. Девять мертвых геев / 9 dead gay guys (2002) DVDRip

80 | 6

1.46 ГБ

В этой теме нет новых непрочитанных сообщений. Вампиры 2: День Мертвых / Vampires: Los Muertos (2002) DVDRip

4 | 34

689.09 МБ

В этой теме нет новых непрочитанных сообщений. Вампиры 2: День Мертвых / Vampires: Los Muertos (2002) DVDRip

51 | 11

1.73 ГБ

В этой теме нет новых непрочитанных сообщений. Воскрешая мертвых / Waking The Dead [s02] (2002) DVDRip от Brazzass

0 | 18

4.37 ГБ

В этой теме нет новых непрочитанных сообщений. Зона мёртвых / Апокалипсис мёртвых / Zone of the dead / Apocalypse of the dead (2009) HDRip

0 | 7

1.37 ГБ

В этой теме нет новых непрочитанных сообщений. Новогодний концерт Венского филармонического оркестра 2002 / Neujahrskonzert der Wiener Philharmoniker 2002 (2002) BDRip 720p от ivandubskoj

54 | 4

4.38 ГБ




Вы не можете начинать темы
Вы не можете отвечать на сообщения
Вы не можете редактировать свои сообщения
Вы не можете удалять свои сообщения
Вы не можете добавлять вложения

Перейти:  
Для Мосгорсуда, Роскомнадзора и рекламодателей: mosgorsud-torrent[собачка]yandex.ru
 Вход
ppkBB3cker v.2 © 2008-2014 @ PPK
[ Time : 0.829s | 16 Queries | GZIP : Off ]

Торрент трекер RUTOR.IN, Не можете зайти на rutor.org? Какой новый адрес рутор? Какое зеркало рутор? Не работает rutor.org и зеркала? Тогда наш торрент специально для вас. Rutor.in неофициальное зеркало rutor. В случае если у Вас заблокирован rutor или вдруг Вы не можете на него зайти, то Вы без труда сможете скачать бесплатно и без рекламы последние новинки кино, игр, сериалов и прочего у нас, на Rutor.in. Не нужно использовать прокси, чтобы зайти на рутор, достаточно воспользоваться нашим ресурсом. Все новые фильмы, игры, сериалы, книги и музыка за 2013 и 2014 годы через торрент бесплатно. Скачивайте фильмы в хорошем качестве, игры для пк, xbox, playstation без регистрации. У нас вы найдете новые Зарубежные сериалы и Русские сериалы 2013, 2014, 2015 годов. Оставайтесь с нами, качайте любимые фильмы, игры, сериалы, книги и музыку.