img image001 image001 image001 image001 image001 image001 image001 image001 image001 image001 image001 image001 image001 image001 image001

Planets Sun Sun Sun
Статистика раздачи
Автор: Nickolas3434 | Размер: 2.25 ГБ | Добавлен: 01 авг 2014
Раздают: 174    Качают: 58
Скачать торрент
Скачать торрент
Описание торрента

СообщениеДобавлено: 01 авг 2014 

Информация о фильме
Название: Багровый лепесток и белый
Оригинальное название: The Crimson Petal and the White
Год выхода: 2011
Жанр: драма, мелодрама
Режиссер: Марк Манден
В ролях: Ромола Гарай, Крис О’Дауд, Аманда Хейл, Ширли Хендерсон, Кэти Лайонс, Элинор Йэтс, Элизабет Беррингтон, Ричард Э. Грант, Джеймс Уилсон, Клер Луиз Коннолли

О фильме:
Несентиментальная история девятнадцатилетней проститутки по имени Конфетка, события которой разворачиваются в викторианском Лондоне. В центре этой «мелодрамы без мелодрам» — стремление юной женщины не быть товаром, вырвать свое тело и душу из трущоб. Мы близко познакомимся с наследником процветающего парфюмерного дела Уильямом Рэкхэмом и его невинной, хрупкого душевного устройства женой Агнес, с его «спрятанной» дочерью Софи и набожным братом Генри, мучимым конфликтом между мирским и безгреховным. Мы встретимся также с эрудированными распутниками, слугами себе на уме, беспризорниками, уличными девками, реформаторами из общества спасения.


Страна: Великобритания
Студия: BBC Television Centre, Cité-Amérique, Origin Pictures, Lip Sync Post, Rushes Post Production Ltd.
Продолжительность: ~00:59:00 серия
Перевод: Профессиональный (многоголосый закадровый) [ТК Домашний]

Файл
Кодек: XviD / AC3
Качество: HDTVRip
Видео: MPEG4, XviD, 624x352 (16:9), 25.000 fps, 1 161 Kbps (0.211 bit/pixel)
Звук: AC-3, 48.0 KHz, 2 ch, 192 Kbps, CBR

General
Complete name : /Багровый лепесток и белый/Багровый лепесток и белый 1с.avi
Format : AVI
Format/Info : Audio Video Interleave
File size : 575 MiB
Duration : 59mn 2s
Overall bit rate : 1 363 Kbps
Writing application : VirtualDubMod 1.5.10.2 (build 2540/release)
Writing library : VirtualDubMod build 2540/release

Video
ID : 0
Format : MPEG-4 Visual
Format profile : Advanced Simple@L5
Format settings, BVOP : 2
Format settings, QPel : No
Format settings, GMC : No warppoints
Format settings, Matrix : Default (H.263)
Codec ID : XVID
Codec ID/Hint : XviD
Duration : 59mn 2s
Bit rate : 1 161 Kbps
Width : 624 pixels
Height : 352 pixels
Display aspect ratio : 16:9
Frame rate : 25.000 fps
Color space : YUV
Chroma subsampling : 4:2:0
Bit depth : 8 bits
Scan type : Progressive
Compression mode : Lossy
Bits/(Pixel*Frame) : 0.211
Stream size : 490 MiB (85%)
Writing library : XviD 1.2.1 (UTC 2008-12-04)

Audio
ID : 1
Format : AC-3
Format/Info : Audio Coding 3
Mode extension : CM (complete main)
Format settings, Endianness : Big
Codec ID : 2000
Duration : 59mn 2s
Bit rate mode : Constant
Bit rate : 192 Kbps
Channel(s) : 2 channels
Channel positions : Front: L R
Sampling rate : 48.0 KHz
Bit depth : 16 bits
Compression mode : Lossy
Stream size : 81.1 MiB (14%)
Alignment : Split accross interleaves
Interleave, duration : 40 ms (1.00 video frame)
Interleave, preload duration : 500 ms


Доп.инфо: На Домашнем все "шпили-вили, сиськи-письки" поотрезали. Поэтому, если где женщина вдруг "забасит", то это любительский одноголосый закадровый перевод (Alekseevi4)



   Похожие торренты   Торрент   Размер 
В этой теме нет новых непрочитанных сообщений. Багровый лепесток и белый / The Crimson Petal and the White [S01] (2011) HDTVRip 720p

8 | 3

6.04 ГБ

В этой теме нет новых непрочитанных сообщений. Белый шум, Белый шум 2: Сияние / White Noise, White Noise 2: The Light (2005, 2007) HDDVDRip 720p от NOLIMITS-TEAM

4 | 10

4.32 ГБ

В этой теме нет новых непрочитанных сообщений. Белый Воротничок / White Collar [S01-02] (2009-2011) HDTVRip-AVC, WEB-DLRip-AVC

0 | 2

24.45 ГБ

В этой теме нет новых непрочитанных сообщений. Багровый пик / Crimson Peak (2015) DVD5

177 | 18

4.36 ГБ

В этой теме нет новых непрочитанных сообщений. Багровый пик / Crimson Peak (2015) TS от Электричка | D

5721 | 192

2.06 ГБ

В этой теме нет новых непрочитанных сообщений. Багровый Прилив / Crimson Tide (1995) Blu-Ray CEE

0 | 2

31.95 ГБ

В этой теме нет новых непрочитанных сообщений. Багровый пик / Crimson Peak (2015) Blu-ray | Лицензия

25 | 4

44.92 ГБ




Вы не можете начинать темы
Вы не можете отвечать на сообщения
Вы не можете редактировать свои сообщения
Вы не можете удалять свои сообщения
Вы не можете добавлять вложения

Перейти:  
Для Мосгорсуда, Роскомнадзора и рекламодателей: mosgorsud-torrent[собачка]yandex.ru
 Вход
ppkBB3cker v.2 © 2008-2014 @ PPK
[ Time : 0.038s | 16 Queries | GZIP : On ]

Торрент трекер RUTOR.IN, Не можете зайти на rutor.org? Какой новый адрес рутор? Какое зеркало рутор? Не работает rutor.org и зеркала? Тогда наш торрент специально для вас. Rutor.in неофициальное зеркало rutor. В случае если у Вас заблокирован rutor или вдруг Вы не можете на него зайти, то Вы без труда сможете скачать бесплатно и без рекламы последние новинки кино, игр, сериалов и прочего у нас, на Rutor.in. Не нужно использовать прокси, чтобы зайти на рутор, достаточно воспользоваться нашим ресурсом. Все новые фильмы, игры, сериалы, книги и музыка за 2013 и 2014 годы через торрент бесплатно. Скачивайте фильмы в хорошем качестве, игры для пк, xbox, playstation без регистрации. У нас вы найдете новые Зарубежные сериалы и Русские сериалы 2013, 2014, 2015 годов. Оставайтесь с нами, качайте любимые фильмы, игры, сериалы, книги и музыку.