img image001 image001 image001 image001 image001 image001 image001 image001 image001 image001 image001 image001 image001 image001 image001

Planets Sun Sun Sun
Статистика раздачи
Автор: Nickolas3434 | Размер: 3.21 ГБ | Добавлен: 04 авг 2014
Раздают: 1034    Качают: 212
Скачать торрент
Скачать торрент
Описание торрента

СообщениеДобавлено: 04 авг 2014 

Информация о фильме

Оригинальное название: Частный детектив Татьяна Иванова
Год выпуска: 2014
Жанр: Детектив
Выпущено: Россия
Режиссер: Олег Штром
В ролях: Анна Тараторкина, Александр Пашков, Андрей Биланов, Татьяна Лянник, Максим Емельянов, Дмитрий Мазуров, Руслан Ягудин, Ирина Темичева, Александр Хошабаев, Евгения Бордзиловская, Виктория Полторак

О фильме: Экранизация популярных детективов Марины Серовой. Татьяна Иванова, бывший опер, старший лейтенант полиции после сокращения уволенная из органов, начинает работать частным детективом в городе Тарасове. К ней обращаются граждане со своими проблемами в тех случаях, когда они, по тем или иным причинам, не хотят или не могут обратиться в полицию. В расследованиях Тани ей помогают ее бывшие коллеги. Один из них - капитан Андрей Мельников - давно влюблен в Таню.



General
Complete name : C:ФильмыCh.D.IvanovaCh.D.Ivanova.01.avi
Format : AVI
Format/Info : Audio Video Interleave
File size : 533 MiB
Duration : 42mn 49s
Overall bit rate : 1 742 Kbps
Writing application : transcode-1.1.5

Video
ID : 0
Format : MPEG-4 Visual
Format settings, BVOP : Yes
Format settings, QPel : No
Format settings, GMC : No warppoints
Format settings, Matrix : Default (H.263)
Codec ID : DX50
Codec ID/Hint : DivX 5
Duration : 42mn 49s
Bit rate : 1 601 Kbps
Width : 720 pixels
Height : 400 pixels
Display aspect ratio : 16:9
Frame rate : 25.000 fps
Color space : YUV
Chroma subsampling : 4:2:0
Bit depth : 8 bits
Scan type : Progressive
Compression mode : Lossy
Bits/(Pixel*Frame) : 0.222
Stream size : 490 MiB (92%)
Writing library : Intel(R) MPEG-4 encoder based on Intel(R) IPP 6.1 build 137.20[6.1.137.763]

Audio
ID : 1
Format : MPEG Audio
Format version : Version 1
Format profile : Layer 3
Mode : Joint stereo
Mode extension : MS Stereo
Codec ID : 55
Codec ID/Hint : MP3
Duration : 42mn 49s
Bit rate mode : Constant
Bit rate : 128 Kbps
Channel(s) : 2 channels
Sampling rate : 48.0 KHz
Compression mode : Lossy
Stream size : 39.2 MiB (7%)
Alignment : Aligned on interleaves
Interleave, duration : 24 ms (0.60 video frame)
Interleave, preload duration : 48 ms
Writing library : LAME3.98.2



Качество: SATRip
Видео: 720x400 (1.80:1), 25 fps, DivX Codec 5.x or 6.x ~1600 kbps avg, 0.22 bit/pixel
Аудио: 48 kHz, MPEG Layer 3, 2 ch, ~128.00 kbps avg
Продолжительность: 6 х ~ 00:45:00
Язык: Русский




   Похожие торренты   Торрент   Размер 
В этой теме нет новых непрочитанных сообщений. Частный детектив Татьяна Иванова [01] (2014) SATRip

9 | 2

533.4 МБ

В этой теме нет новых непрочитанных сообщений. Частный детектив Татьяна Иванова [01-12 из 12] (2014) SATRip

605 | 198

6.95 ГБ

В этой теме нет новых непрочитанных сообщений. Частный детектив Татьяна Иванова [01-04 из 12] (2014) SATRip

30 | 2

2.07 ГБ

В этой теме нет новых непрочитанных сообщений. Частный детектив Татьяна Иванова [01-06] (2014) HDTVRip

99 | 39

2.34 ГБ

В этой теме нет новых непрочитанных сообщений. Частный детектив Татьяна Иванова [01-03 из 06] (2014) HDTV 1080i от MediaClub

33 | 7

13.46 ГБ

В этой теме нет новых непрочитанных сообщений. Частный детектив Татьяна Иванова [01 из 06] (2014) HDTVRip 720p от MediaClub

6 | 2

2.43 ГБ

В этой теме нет новых непрочитанных сообщений. Частный детектив Татьяна Иванова [01-02 из 06] (2014) HDTV 1080i от MediaClub

15 | 2

8.94 ГБ




Вы не можете начинать темы
Вы не можете отвечать на сообщения
Вы не можете редактировать свои сообщения
Вы не можете удалять свои сообщения
Вы не можете добавлять вложения

Перейти:  
Для Мосгорсуда, Роскомнадзора и рекламодателей: mosgorsud-torrent[собачка]yandex.ru
 Вход
ppkBB3cker v.2 © 2008-2014 @ PPK
[ Time : 0.038s | 16 Queries | GZIP : Off ]

Торрент трекер RUTOR.IN, Не можете зайти на rutor.org? Какой новый адрес рутор? Какое зеркало рутор? Не работает rutor.org и зеркала? Тогда наш торрент специально для вас. Rutor.in неофициальное зеркало rutor. В случае если у Вас заблокирован rutor или вдруг Вы не можете на него зайти, то Вы без труда сможете скачать бесплатно и без рекламы последние новинки кино, игр, сериалов и прочего у нас, на Rutor.in. Не нужно использовать прокси, чтобы зайти на рутор, достаточно воспользоваться нашим ресурсом. Все новые фильмы, игры, сериалы, книги и музыка за 2013 и 2014 годы через торрент бесплатно. Скачивайте фильмы в хорошем качестве, игры для пк, xbox, playstation без регистрации. У нас вы найдете новые Зарубежные сериалы и Русские сериалы 2013, 2014, 2015 годов. Оставайтесь с нами, качайте любимые фильмы, игры, сериалы, книги и музыку.
cron