img image001 image001 image001 image001 image001 image001 image001 image001 image001 image001 image001 image001 image001 image001 image001

Planets Sun Sun Sun
Статистика раздачи
Автор: Nickolas3434 | Размер: 4.37 ГБ | Добавлен: 05 авг 2014
Раздают: 235    Качают: 69
Скачать торрент
Скачать торрент
Описание торрента

СообщениеДобавлено: 05 авг 2014 

Страна: Россия
Производство: Студия «Дед Мороз», Канал Россия, Москино

Жанр: драма, военный
Год выпуска: 2012
Продолжительность: 07:46:03 (12 серий ~ 39 минут)

Перевод: Не требуется
Cубтитры: нет
Оригинальная аудиодорожка: русский

Режиссер: Сергей Урсуляк

В ролях:
Сергей Маковецкий, Анна Михалкова, Александр Никольский, Александр Балуев, Антон Кузнецов, Лика Нифонтова, Никита Тезин, Евгений Дятлов, Полина Агуреева, Софья Райзман...

Описание:
Сюжет разворачивается в 1942—1943 годы, в период обороны Сталинграда. Еврей Виктор Штрум — талантливый физик-ядерщик, работающий в одном из институтов страны над созданием атомной бомбы. В это время близкие Штрума погибают в гитлеровских лагерях и застенках НКВД, на него самого начинаются гонения. Изобретателя может спасти только его научное детище, которым заинтересовался сам Сталин. Государству нужно такое мощное оружие, как атомная бомба. Ученому предстоит сделать выбор: остаться верным науке и работать на «вождя нации» или отказаться от своего призвания и быть уничтоженным.






Источник: HDTV 1080p
Качество видео: HDTVRip
Формат видео: AVI

Виде: 720x400 (16:9), 25 fps, XviD ~ 1138 kbps avg, 0.158 bit/pixel
Аудио: 48 kHz, Dolby Digital AC3 2.0, 192 kbps
Примечание: релиз рассчитан для записи на DVD5

Раздача от:
Общее
Полное имя : Zhizn.i.sudba.2012.HDTVRip_[New-team]_by_AVP_Studio.avi
Формат : AVI
Формат/Информация : Audio Video Interleave
Размер файла : 335 Мбайт
Продолжительность : 34 м.
Общий поток : 1339 Кбит/сек
Программа кодирования : VirtualDubModRus 1.5.10.2 (build 2542/release)
Библиотека кодирования : VirtualDubMod build 2542/release

Видео
Идентификатор : 0
Формат : MPEG-4 Visual
Профиль формата : Advanced Simple@L5
Параметр BVOP формата : 1
Параметр QPel формата : Нет
Параметр GMC формата : Без точки перехода
Параметр матрицы формата : Выборочная
Идентификатор кодека : XVID
Идентификатор кодека/Подсказка : XviD
Продолжительность : 34 м.
Битрейт : 1138 Кбит/сек
Ширина : 720 пикселей
Высота : 400 пикселей
Соотношение сторон : 16:9
Частота кадров : 25,000 кадров/сек
Цветовое пространство : YUV
Субдискретизация насыщенности : 4:2:0
Битовая глубина : 8 бит
Тип развёртки : Прогрессивная
Метод сжатия : С потерями
Бит/(Пиксели*Кадры) : 0.158
Размер потока : 285 Мбайт (85%)
Библиотека кодирования : XviD 73

Аудио
Идентификатор : 1
Формат : AC-3
Формат/Информация : Audio Coding 3
Расширение режима : CM (complete main)
Параметр Endianness формата : Big
Идентификатор кодека : 2000
Продолжительность : 34 м.
Вид битрейта : Постоянный
Битрейт : 192 Кбит/сек
Каналы : 2 канала
Расположение каналов : Front: L R
Частота : 48,0 КГц
Битовая глубина : 16 бит
Метод сжатия : С потерями
Размер потока : 48,1 Мбайт (14%)
Выравнивание : Разделение по промежуткам
Продолжительность промежутка : 40 мс. (1,00 видеокадр)
Время предзагрузки промежутка : 500 мс





   Похожие торренты   Торрент   Размер 
В этой теме нет новых непрочитанных сообщений. Жизнь и судьба [01-12 из 12] (2012) HDTVRip-AVC от New-Team

131 | 23

7.94 ГБ

В этой теме нет новых непрочитанных сообщений. Жизнь и судьба [01-12 из 12] (2012) HDTVRip 720p от Generalfilm

47 | 17

13.24 ГБ

В этой теме нет новых непрочитанных сообщений. Жизнь и судьба [01-12 из 12] (2012) DVB

22 | 6

18.73 ГБ

В этой теме нет новых непрочитанных сообщений. Жизнь и судьба [01-12 из 12] (2012) SATRip от КинозалSAT

165 | 49

6.45 ГБ

В этой теме нет новых непрочитанных сообщений. Жизнь и судьба [01-06 из 06] (2012) HDTV 1080i

32 | 17

27.49 ГБ

В этой теме нет новых непрочитанных сообщений. Жизнь и судьба [01-12 из 12] (2012) DVDRip от Youtracker | лицензия

49 | 6

8.45 ГБ

В этой теме нет новых непрочитанных сообщений. Жизнь и судьба [01-12 из 12] (2012) DVDRip-AVC от Youtracker | лицензия

11 | 5

8.41 ГБ




Вы не можете начинать темы
Вы не можете отвечать на сообщения
Вы не можете редактировать свои сообщения
Вы не можете удалять свои сообщения
Вы не можете добавлять вложения

Перейти:  
Для Мосгорсуда, Роскомнадзора и рекламодателей: mosgorsud-torrent[собачка]yandex.ru
 Вход
ppkBB3cker v.2 © 2008-2014 @ PPK
[ Time : 0.049s | 15 Queries | GZIP : Off ]

Торрент трекер RUTOR.IN, Не можете зайти на rutor.org? Какой новый адрес рутор? Какое зеркало рутор? Не работает rutor.org и зеркала? Тогда наш торрент специально для вас. Rutor.in неофициальное зеркало rutor. В случае если у Вас заблокирован rutor или вдруг Вы не можете на него зайти, то Вы без труда сможете скачать бесплатно и без рекламы последние новинки кино, игр, сериалов и прочего у нас, на Rutor.in. Не нужно использовать прокси, чтобы зайти на рутор, достаточно воспользоваться нашим ресурсом. Все новые фильмы, игры, сериалы, книги и музыка за 2013 и 2014 годы через торрент бесплатно. Скачивайте фильмы в хорошем качестве, игры для пк, xbox, playstation без регистрации. У нас вы найдете новые Зарубежные сериалы и Русские сериалы 2013, 2014, 2015 годов. Оставайтесь с нами, качайте любимые фильмы, игры, сериалы, книги и музыку.