img image001 image001 image001 image001 image001 image001 image001 image001 image001 image001 image001 image001 image001 image001 image001

Planets Sun Sun Sun
Статистика раздачи
Автор: Nickolas3434 | Размер: 5.72 ГБ | Добавлен: 07 авг 2014
Раздают: 783    Качают: 480
Скачать торрент
Скачать торрент
Описание торрента

СообщениеДобавлено: 07 авг 2014 

Информация о фильме
Название: Гоморра
Оригинальное название: Gomorra
Год выхода: 2014
Жанр: Криминал, драма, мафия
Режиссер: Стефано Соллима, Клаудио Купеллини, Франческа Коменчини
В ролях: Марко Д’Аморе, Фортунато Черлино, Мария Пиа Кальцоне, Сальваторе Эспозито, Марко Палветти, Доменико Бальзамо, Массимильяно Росси, Энзо Сачеттино, Элена Стараче, Антонио Мило

О фильме: Сериал "Гоморра" повествует об итальянской мафиозной корпорации несколько веков державшей в страхе весь Неаполь и в какой-то мере контролирующая его до сих пор. Сейчас все еще не оконченна война общества против бандитов и коррумпированных властей и мафиозные разборки здесь не хуже, чем на Сицилии.



Выпущено: Италия, Германия
Студия: Cattleya, Fandango, Sky
Продолжительность: 10 х ~ 00:55:00
Перевод: Профессиональный многоголосый

Файл
Кодек: XviD
Качество: HDTVRip
Видео: 1500 Кбит/с, 720x384
Звук:
Аудио: Русский (AC3, 2 ch, 192 Кбит/с) / Профессиональный многоголосый (Первый канал)

Семпл

Общее
Полное имя : F:...Gomorra.S01E01.HDTVRip.Rus.MediaClub.avi
Формат : AVI
Формат/Информация : Audio Video Interleave
Размер файла : 626 Мбайт
Продолжительность : 51 м.
Общий поток : 1702 Кбит/сек
Название фильма : Gomorra - Episode 1
Режиссёр : MediaClub
Программа кодирования : VirtualDubMod 1.5.10.2 (build 2540/release)

Видео
Идентификатор : 0
Формат : MPEG-4 Visual
Профиль формата : Advanced Simple@L5
Параметр BVOP формата : 2
Параметр QPel формата : Нет
Параметр GMC формата : Без точки перехода
Параметр матрицы формата : Default (MPEG)
Идентификатор кодека : XVID
Идентификатор кодека/Подсказка : XviD
Продолжительность : 51 м.
Битрейт : 1500 Кбит/сек
Ширина : 720 пикселей
Высота : 384 пикселя
Соотношение сторон : 1,85:1
Частота кадров : 25,000 кадров/сек
Цветовое пространство : YUV
Субдискретизация насыщенности : 4:2:0
Битовая глубина : 8 бит
Тип развёртки : Прогрессивная
Метод сжатия : С потерями
Бит/(Пиксели*Кадры) : 0.217
Размер потока : 552 Мбайт (88%)
Библиотека кодирования : XviD 1.2.1 (UTC 2008-12-04)

Аудио
Идентификатор : 1
Формат : AC-3
Формат/Информация : Audio Coding 3
Расширение режима : CM (complete main)
Параметр Endianness формата : Big
Идентификатор кодека : 2000
Продолжительность : 51 м.
Вид битрейта : Постоянный
Битрейт : 192 Кбит/сек
Каналы : 2 канала
Расположение каналов : Front: L R
Частота : 48,0 КГц
Битовая глубина : 16 бит
Метод сжатия : С потерями
Размер потока : 70,6 Мбайт (11%)
Выравнивание : Разделение по промежуткам
Продолжительность промежутка : 40 мс. (1,00 видеокадр)
Время предзагрузки промежутка : 500 мс.






Релиз от:



   Похожие торренты   Торрент   Размер 
В этой теме нет новых непрочитанных сообщений. Гоморра / Gomorra [S01] (2014) HDTVRip от MediaClub | Первый канал

1947 | 947

6.87 ГБ

В этой теме нет новых непрочитанных сообщений. Гоморра / Gomorra [01-06 из 12] (2014) HDTVRip от MediaClub | Первый канал

799 | 303

3.59 ГБ

В этой теме нет новых непрочитанных сообщений. Гоморра / Gomorra [01-06 из 12] (2014) HDTVRip 720p от MediaClub | Первый канал

561 | 235

7.59 ГБ

В этой теме нет новых непрочитанных сообщений. Гоморра / Gomorra [01, 03 из 12] (2014) HDTVRip 720p от MediaClub | Первый канал

186 | 56

2.74 ГБ

В этой теме нет новых непрочитанных сообщений. Гоморра / Gomorra [S01] (2014) HDTVRip 720p от MediaClub | Первый канал

352 | 278

14.41 ГБ

В этой теме нет новых непрочитанных сообщений. Гоморра / Gomorra [01-10 из 12] (2014) HDTVRip 720p от MediaClub | Первый канал

431 | 192

12.07 ГБ

В этой теме нет новых непрочитанных сообщений. Гоморра / Gomorra [02х01-06 из 12] (2016) HDTVRip | Первый канал

442 | 191

6.51 ГБ




Вы не можете начинать темы
Вы не можете отвечать на сообщения
Вы не можете редактировать свои сообщения
Вы не можете удалять свои сообщения
Вы не можете добавлять вложения

Перейти:  
Для Мосгорсуда, Роскомнадзора и рекламодателей: mosgorsud-torrent[собачка]yandex.ru
 Вход
ppkBB3cker v.2 © 2008-2014 @ PPK
[ Time : 0.041s | 15 Queries | GZIP : Off ]

Торрент трекер RUTOR.IN, Не можете зайти на rutor.org? Какой новый адрес рутор? Какое зеркало рутор? Не работает rutor.org и зеркала? Тогда наш торрент специально для вас. Rutor.in неофициальное зеркало rutor. В случае если у Вас заблокирован rutor или вдруг Вы не можете на него зайти, то Вы без труда сможете скачать бесплатно и без рекламы последние новинки кино, игр, сериалов и прочего у нас, на Rutor.in. Не нужно использовать прокси, чтобы зайти на рутор, достаточно воспользоваться нашим ресурсом. Все новые фильмы, игры, сериалы, книги и музыка за 2013 и 2014 годы через торрент бесплатно. Скачивайте фильмы в хорошем качестве, игры для пк, xbox, playstation без регистрации. У нас вы найдете новые Зарубежные сериалы и Русские сериалы 2013, 2014, 2015 годов. Оставайтесь с нами, качайте любимые фильмы, игры, сериалы, книги и музыку.