img image001 image001 image001 image001 image001 image001 image001 image001 image001 image001 image001 image001 image001 image001 image001

Planets Sun Sun Sun
Статистика раздачи
Автор: Nickolas3434 | Размер: 6.99 ГБ | Добавлен: 07 авг 2014
Раздают: 23    Качают: 36
Скачать торрент
Скачать торрент
Описание торрента

СообщениеДобавлено: 07 авг 2014 

Информация о фильме
Оригинальное название: Три звезды
Год выхода: 2014
Жанр: Мелодрама
Режиссер: Мичислав Юзовский, Сергей Лесогоров
В ролях: Анна Данькова, Иван Колесников, Ярослав Леонов, Максим Туранцев, Владимир Тебенко, Павел Мисаилов, Александр Лырчиков, Всеволод Макаров, Алла Подчуфарова, Лада Чернова, Алина Стеблюк, Анна Кузина (II), Юлия Юрченко, Полина Уварова, Евгений Дакот, Анастасия Немец, Дария Тюрина, Сергей Николаев (VII), Александр Пугачёв (II), Ирина Бероева, Денис Варенов, Ника Балина, Надежда Иванко, Марина Дианова, Денис Давыдов, Евграф Прохоров, Юлия Минаковская, Елена Панджариди, Светлана Фролова (II), Игорь Верста, Алина Хруник, Артем Лысков, Артём Маркарьян, Екатерина Мадалинская, Александра Булычёва

О фильме:
Брат и сестра Белянкины с детства недолюбливали друг друга. Они росли в неполной семье, вечно и во всем соревновались и вечно были всем недовольны. Сейчас Славе 31 год, он образованный и неглупый, однако, не найдя своего места под солнцем, живет одним днём. Марина, старшая сестра, страдает комплексом «ранней звезды». В 20 лет она была ведущей на одном из первых музыкальных каналов, ее узнавала вся страна. Сейчас ей 36, на телевидении лет 15 она уже никому не нужна. Марина работает где придется, продолжая мечтать о голубом экране. Вдруг Белянкины получают известие о трагической гибели отца, который бросил их много лет назад. Так как с ним в аварии погибла и его новая жена, а завещания не было, Слава и Марина оказываются единственными наследниками и получают под своё управление небольшую гостиницу в одном из районов Москвы. Первое желание брата и сестры - продать бизнес и разделить деньги - тут же разбивается вдребезги, так как выясняется, что есть и третий наследник. У их отца остался ещё один сын от нового брака, 15-ти летний паренек по имени Макс. Мало того что Слава и Марина должны управлять гостиницей до того момента, пока Максу не исполнится 18 лет, они ещё и должны стать опекунами мальчика. И каким-то загадочным образом три звезды этой гостиницы объединяют судьбы троих членов одной, давно разрушенной семьи.

Страна: Россия, DixiMedia по заказу НТВ
Продолжительность: 10 x ~ 00:46:00
Перевод: Перевод не требуется

Файл
Кодек: XviD
Видео: 720x400 (1.80:1), 25 fps, XviD build 50 ~1500 kbps avg, 0.22 bit/pixel
Аудио: 48 kHz, AC3 Dolby Digital, 2/0 (L,R) ch, ~192.00 kbps avg
General
Complete name : Z:раздачиTri.zvezdy.2014.XviD.SATRip.RG.Russkie.serialy.&.Files-xTri.zvezdy.(01.seriya).2014.XviD.SATRip.RG.Russkie.serialy.&.Files-x.avi
Format : AVI
Format/Info : Audio Video Interleave
File size : 550 MiB
Duration : 45mn 8s
Overall bit rate : 1 705 Kbps
Writing application : VirtualDubMod 1.5.10.3 | www.virtualdub-fr.org || (build 2550/release)
Writing library : VirtualDubMod build 2550/release

Video
ID : 0
Format : MPEG-4 Visual
Format profile : Advanced Simple@L5
Format settings, BVOP : 1
Format settings, QPel : No
Format settings, GMC : No warppoints
Format settings, Matrix : Default (H.263)
Codec ID : XVID
Codec ID/Hint : XviD
Duration : 45mn 8s
Bit rate : 1 503 Kbps
Width : 720 pixels
Height : 400 pixels
Display aspect ratio : 16:9
Frame rate : 25.000 fps
Color space : YUV
Chroma subsampling : 4:2:0
Bit depth : 8 bits
Scan type : Progressive
Compression mode : Lossy
Bits/(Pixel*Frame) : 0.209
Stream size : 485 MiB (88%)
Writing library : XviD 1.2.1 (UTC 2008-12-04)

Audio
ID : 1
Format : AC-3
Format/Info : Audio Coding 3
Mode extension : CM (complete main)
Format settings, Endianness : Big
Codec ID : 2000
Duration : 45mn 8s
Bit rate mode : Constant
Bit rate : 192 Kbps
Channel(s) : 2 channels
Channel positions : Front: L R
Sampling rate : 48.0 KHz
Bit depth : 16 bits
Compression mode : Lossy
Stream size : 62.0 MiB (11%)
Alignment : Split accross interleaves
Interleave, duration : 40 ms (1.00 video frame)
Interleave, preload duration : 500 ms






Доп. информация: Релиз группа
Сэмпл



   Похожие торренты   Торрент   Размер 
В этой теме нет новых непрочитанных сообщений. Три звезды [01-11 из 30] (2014) SATRip от files-x

33 | 27

5.92 ГБ

В этой теме нет новых непрочитанных сообщений. Три звезды [01-12 из 30] (2014) SATRip от files-x

33 | 20

6.45 ГБ

В этой теме нет новых непрочитанных сообщений. Три звезды [01-12 из 30] (2014) SATRip от files-x

36 | 47

8.6 ГБ

В этой теме нет новых непрочитанных сообщений. Три звезды [01-10 из 30] (2014) SATRip от files-x

75 | 58

5.38 ГБ

В этой теме нет новых непрочитанных сообщений. Три звезды [01-06 из 30] (2014) SATRip от files-x

30 | 9

3.21 ГБ

В этой теме нет новых непрочитанных сообщений. Так сложились звезды [01-04 из 04] (2016) SATRip от Files-x

245 | 26

2.35 ГБ

В этой теме нет новых непрочитанных сообщений. Капкан для звезды [01-04 из 04] (2015) SATRip-AVC от Files-x

345 | 87

1.99 ГБ




Вы не можете начинать темы
Вы не можете отвечать на сообщения
Вы не можете редактировать свои сообщения
Вы не можете удалять свои сообщения
Вы не можете добавлять вложения

Перейти:  
Для Мосгорсуда, Роскомнадзора и рекламодателей: mosgorsud-torrent[собачка]yandex.ru
 Вход
ppkBB3cker v.2 © 2008-2014 @ PPK
[ Time : 0.081s | 16 Queries | GZIP : Off ]

Торрент трекер RUTOR.IN, Не можете зайти на rutor.org? Какой новый адрес рутор? Какое зеркало рутор? Не работает rutor.org и зеркала? Тогда наш торрент специально для вас. Rutor.in неофициальное зеркало rutor. В случае если у Вас заблокирован rutor или вдруг Вы не можете на него зайти, то Вы без труда сможете скачать бесплатно и без рекламы последние новинки кино, игр, сериалов и прочего у нас, на Rutor.in. Не нужно использовать прокси, чтобы зайти на рутор, достаточно воспользоваться нашим ресурсом. Все новые фильмы, игры, сериалы, книги и музыка за 2013 и 2014 годы через торрент бесплатно. Скачивайте фильмы в хорошем качестве, игры для пк, xbox, playstation без регистрации. У нас вы найдете новые Зарубежные сериалы и Русские сериалы 2013, 2014, 2015 годов. Оставайтесь с нами, качайте любимые фильмы, игры, сериалы, книги и музыку.