img image001 image001 image001 image001 image001 image001 image001 image001 image001 image001 image001 image001 image001 image001 image001

Planets Sun Sun Sun
Статистика раздачи
Автор: Nickolas3434 | Размер: 7.38 ГБ | Добавлен: 10 авг 2014
Раздают: 94    Качают: 114
Скачать торрент
Скачать торрент
Описание торрента

СообщениеДобавлено: 10 авг 2014 

Название: Твин Пикс
Оригинальное название: Twin Peaks
Год выпуска: 1990
Жанр: Триллер, драма, криминал, детектив
Режиссер: Дэвид Линч, Дайан Китон, Джонатан Сэнгер
В ролях: Кайл МакЛахлан, Майкл Онткин, Шерил Ли, Лара Флинн Бойл, Шерилин Фенн, Рэй Уайз, Мигель Феррер, Дэвид Линч, Билли Зейн, Хезер Грэм, Мэдчен Эмик, Дэна Эшбрук, Ричард Беймер, Уоррен Фрост, Пегги Липтон, Джеймс Маршалл, Эверет МакГилл, Джек Нэнс, Джоан Чен, Кимми Робертсон, Майкл Хорс, Пайпер Лори, Гарри Гоаз, Эрик ДаРе, Уэнди Роби, Расс Тэмблин, Дон С. Дэвис, Крис Малки, Гаррисон Хершбергер, Грэйс Забриски, Катрин Э. Колсон, Йен Бьюкэнэн, Мэри Джо Дешанель, Фрэнк Силва, Кеннет Уэлш, Аль Штробель, Дэвид Патрик Келли, Джон Бойлэн, Виктория Кэтлин
Описание: Основная сюжетная линия фильма - история расследования специальным агентом ФБР Дейлом Купером загадочного убийства юной школьницы Лоры Палмер, которая, казалось бы, была примерна во всех отношениях. Позднее откроется, что между видимым и реальным была невероятная пропасть. История начинается с известия о находке обнаженного тела, завернутого в полиэтилен и выброшенного волнами на берег озера. В ходе расследования перед внимательными взглядами агента Купера, шерифа Трумена и его помощников проходят разные жители Твин Пикс. Постепенно зритель открывает для себя поражающее многообразие сторон жизни этого, на первый взгляд, тихого и мирного городка: от драматической романтики до леденящего, мистического ужаса. Режиссер картины, Дэвид Линч, позднее скажет в одном из интервью: «Твин Пикс - везде. Это не место. Это состояние".
Выпущено: США, Lynch/Frost Productions, Propaganda Films, Spelling Entertainment, Twin Peaks Productions Inc.
Продолжительность: 1 х 01:30:00, 7 х ~ 00:45:00
Перевод: Авторский одноголосый - Сербин
Качество: BDRip
Видео: XviD, ~ 2000 Кбит/с, 720X544
Аудио rus: AC3, 6 ch, 448 Кбит/с
Первый сезон:
00. Происшествие на северо-западе (Пилотная серия) / Northwest Passage (Pilot)
01. Следы в никуда / Traces to Nowhere
02. Дзен, или Умение поймать убийцу / Zen, or the Skill to Catch a Killer
03. Покойся с болью / Rest in Pain
04. Однорукий / The One-Armed Man
05. Сны Купера / Cooper's Dreams
06. Время осмысления / Realization Time
07. Последний вечер / The Last Evening

Полное имя : E:Tvin.Piks.(1.sezon).tahiyTvin.Piks.(1.sezon.02.seriya.iz.08).tahiy.avi
Формат : AVI
Формат/Информация : Audio Video Interleave
Размер файла : 839 Мбайт
Продолжительность : 46 м.
Общий поток : 2526 Кбит/сек
Название фильма : Tvin.Piks.(1.sezon).tahiy
Программа кодирования : VirtualDubMod 1.5.10.3 | www.virtualdub-fr.org || (build 2550/release)
Видео
Идентификатор : 0
Формат : MPEG-4 Visual
Профиль формата : Advanced Simple@L5
Параметр BVOP формата : 1
Параметр QPel формата : Нет
Параметр GMC формата : Без точки перехода
Параметр матрицы формата : Default (MPEG)
Идентификатор кодека : XVID
Идентификатор кодека/Подсказка : XviD
Продолжительность : 46 м.
Битрейт : 2068 Кбит/сек
Ширина : 720 пикселей
Высота : 544 пикселя
Соотношение сторон : 4:3
Частота кадров : 23,976 кадра/сек
Цветовое пространство : YUV
Субдискретизация насыщенности : 4:2:0
Битовая глубина : 8 бит
Тип развёртки : Прогрессивная
Метод сжатия : С потерями
Бит/(Пиксели*Кадры) : 0.220
Размер потока : 687 Мбайт (82%)
Библиотека кодирования : XviD 1.2.1 (UTC 2008-12-04)
Аудио
Идентификатор : 1
Формат : AC-3
Формат/Информация : Audio Coding 3
Расширение режима : CM (complete main)
Параметр Endianness формата : Big
Идентификатор кодека : 2000
Продолжительность : 46 м.
Вид битрейта : Постоянный
Битрейт : 448 Кбит/сек
Каналы : 6 каналов
Расположение каналов : Front: L C R, Side: L R, LFE
Частота : 48,0 КГц
Битовая глубина : 16 бит
Метод сжатия : С потерями
Размер потока : 149 Мбайт (18%)
Выравнивание : Разделение по промежуткам
Продолжительность промежутка : 42 мс. (1,00 видеокадр)
Время предзагрузки промежутка : 500 мс.





   Похожие торренты   Торрент   Размер 
В этой теме нет новых непрочитанных сообщений. Твин Пикс / Twin Peaks [S01] (1990) BDRip 1080p | P, A

215 | 26

28.81 ГБ

В этой теме нет новых непрочитанных сообщений. Твин Пикс / Twin Peaks [S01] (1990) BDRip-AVC | iPad

63 | 20

9.38 ГБ

В этой теме нет новых непрочитанных сообщений. Твин Пикс / Twin Peaks [S01] (1990) BDRip 720p

30 | 34

35.35 ГБ

В этой теме нет новых непрочитанных сообщений. Твин Пикс / Twin Peaks [S01] (1990) BDRip 720p от MediaClub | P, А

30 | 49

31.85 ГБ

В этой теме нет новых непрочитанных сообщений. Твин Пикс / Twin Peaks [1 сезон] (1990) BDRip от HQ-ViDEO | A, P

562 | 155

7.87 ГБ

В этой теме нет новых непрочитанных сообщений. Твин Пикс / Twin Peaks [S02] (1990-1991) BDRip-AVC | iPad

49 | 15

23.28 ГБ

В этой теме нет новых непрочитанных сообщений. Твин Пикс / Twin Peaks [S02] (1990-1991) BDRip от HQ-ViDEO

304 | 222

20.12 ГБ




Вы не можете начинать темы
Вы не можете отвечать на сообщения
Вы не можете редактировать свои сообщения
Вы не можете удалять свои сообщения
Вы не можете добавлять вложения

Перейти:  
Для Мосгорсуда, Роскомнадзора и рекламодателей: mosgorsud-torrent[собачка]yandex.ru
 Вход
ppkBB3cker v.2 © 2008-2014 @ PPK
[ Time : 0.068s | 15 Queries | GZIP : Off ]

Торрент трекер RUTOR.IN, Не можете зайти на rutor.org? Какой новый адрес рутор? Какое зеркало рутор? Не работает rutor.org и зеркала? Тогда наш торрент специально для вас. Rutor.in неофициальное зеркало rutor. В случае если у Вас заблокирован rutor или вдруг Вы не можете на него зайти, то Вы без труда сможете скачать бесплатно и без рекламы последние новинки кино, игр, сериалов и прочего у нас, на Rutor.in. Не нужно использовать прокси, чтобы зайти на рутор, достаточно воспользоваться нашим ресурсом. Все новые фильмы, игры, сериалы, книги и музыка за 2013 и 2014 годы через торрент бесплатно. Скачивайте фильмы в хорошем качестве, игры для пк, xbox, playstation без регистрации. У нас вы найдете новые Зарубежные сериалы и Русские сериалы 2013, 2014, 2015 годов. Оставайтесь с нами, качайте любимые фильмы, игры, сериалы, книги и музыку.