img image001 image001 image001 image001 image001 image001 image001 image001 image001 image001 image001 image001 image001 image001 image001

Planets Sun Sun Sun
Статистика раздачи
Автор: Nickolas3434 | Размер: 2.82 ГБ | Добавлен: 13 авг 2014
Раздают: 1407    Качают: 198
Скачать торрент
Скачать торрент
Описание торрента

СообщениеДобавлено: 13 авг 2014 

Информация о фильме
Оригинальное название: Слепой расчет
Год выхода: 2014
Жанр: Криминал, мелодрама
Режиссер: Альбина Антипенко
В ролях: Серафима Огарёва, Макар Запорожский, Александр Константинов, Георгий Николаенко, Игорь Сигов, Вероника Пляшкевич, Андрей Сенькин, Игорь Денисов, Светлана Никифорова, Тамара Миронова, Артём Бородич, Денис Воронцов, Татьяна Чердынцева, Анатолий Гурьев, Андрей Душечкин, Александр Суцковер, Алексия Фроемчук
О фильме:
Когда речь идёт о любви, можно ли всё обдумать, просчитать? Что лучше послушать - своё сердце или голову? Можно использовать коварный план и слепой расчёт, но принесёт ли это счастье? Любовь и коварство всегда ходят рядом. История двух женщин, чьи судьбы переплелись в любви, предательстве и ненависти любовного треугольника...
Страна: Россия
Студия: кинокомпания "Студия Паламеда", продюсерский центр "Фабула"
Продолжительность: 2 x ~ 01:30:00
Перевод: Не требуется
Файл
Кодек: XviD
Качество: HDTVRip
Видео: 720x400 (1.80:1), 25 fps, XviD build 50 ~1958 kbps avg, 0.22 bit/pixel
Аудио: 48 kHz, AC3 Dolby Digital, 2/0 (L,R) ch, ~192.00 kbps avg
General
Complete name : Z:раздачиSlepoy.raschet.2014.HDTVRip.RG.Russkie.serialy.&.Files-xSlepoy.raschet.01.seriya.2014.HDTVRip.RG.Russkie.serialy.&.Files-x.avi
Format : AVI
Format/Info : Audio Video Interleave
File size : 1.45 GiB
Duration : 1h 33mn
Overall bit rate : 2 235 Kbps
Writing application : VirtualDubMod 1.5.10.3 | www.virtualdub-fr.org || (build 2550/release)
Writing library : VirtualDubMod build 2550/release
Video
ID : 0
Format : MPEG-4 Visual
Format profile : Advanced Simple@L5
Format settings, BVOP : 1
Format settings, QPel : No
Format settings, GMC : No warppoints
Format settings, Matrix : Default (H.263)
Codec ID : XVID
Codec ID/Hint : XviD
Duration : 1h 33mn
Bit rate : 2 034 Kbps
Width : 720 pixels
Height : 400 pixels
Display aspect ratio : 16:9
Frame rate : 25.000 fps
Color space : YUV
Chroma subsampling : 4:2:0
Bit depth : 8 bits
Scan type : Progressive
Compression mode : Lossy
Bits/(Pixel*Frame) : 0.282
Stream size : 1.32 GiB (91%)
Writing library : XviD 1.2.1 (UTC 2008-12-04)
Audio
ID : 1
Format : AC-3
Format/Info : Audio Coding 3
Mode extension : CM (complete main)
Format settings, Endianness : Big
Codec ID : 2000
Duration : 1h 33mn
Bit rate mode : Constant
Bit rate : 192 Kbps
Channel(s) : 2 channels
Channel positions : Front: L R
Sampling rate : 48.0 KHz
Bit depth : 16 bits
Compression mode : Lossy
Stream size : 128 MiB (9%)
Alignment : Split accross interleaves
Interleave, duration : 40 ms (1.00 video frame)
Interleave, preload duration : 500 ms






   Похожие торренты   Торрент   Размер 
В этой теме нет новых непрочитанных сообщений. Слепой расчет [01 из 02] (2014) HDTVRip 720p от MediaClub

11 | 7

3.69 ГБ

В этой теме нет новых непрочитанных сообщений. Слепой расчет [01-02 из 02] (2014) HDTVRip 720p от MediaClub

124 | 30

7.39 ГБ

В этой теме нет новых непрочитанных сообщений. Слепой расчет [01-04 из 04] (2014) SATRip

2706 | 338

2.05 ГБ

В этой теме нет новых непрочитанных сообщений. Слепой расчет [01-04 из 04] (2014) SATRip от GeneralFilm

619 | 87

1.96 ГБ

В этой теме нет новых непрочитанных сообщений. Слепой расчет [01-02 из 02] (2014) HDTV 1080i от MediaClub

185 | 32

10.76 ГБ

В этой теме нет новых непрочитанных сообщений. Холодный расчет [01-04 из 04] (2014) DVB от Files-x

158 | 23

5.14 ГБ

В этой теме нет новых непрочитанных сообщений. Холодный расчет [01-04 из 04] (2014) SATRip от Files-x

1110 | 136

2.15 ГБ




Вы не можете начинать темы
Вы не можете отвечать на сообщения
Вы не можете редактировать свои сообщения
Вы не можете удалять свои сообщения
Вы не можете добавлять вложения

Перейти:  
Для Мосгорсуда, Роскомнадзора и рекламодателей: mosgorsud-torrent[собачка]yandex.ru
 Вход
ppkBB3cker v.2 © 2008-2014 @ PPK
[ Time : 0.061s | 15 Queries | GZIP : Off ]

Торрент трекер RUTOR.IN, Не можете зайти на rutor.org? Какой новый адрес рутор? Какое зеркало рутор? Не работает rutor.org и зеркала? Тогда наш торрент специально для вас. Rutor.in неофициальное зеркало rutor. В случае если у Вас заблокирован rutor или вдруг Вы не можете на него зайти, то Вы без труда сможете скачать бесплатно и без рекламы последние новинки кино, игр, сериалов и прочего у нас, на Rutor.in. Не нужно использовать прокси, чтобы зайти на рутор, достаточно воспользоваться нашим ресурсом. Все новые фильмы, игры, сериалы, книги и музыка за 2013 и 2014 годы через торрент бесплатно. Скачивайте фильмы в хорошем качестве, игры для пк, xbox, playstation без регистрации. У нас вы найдете новые Зарубежные сериалы и Русские сериалы 2013, 2014, 2015 годов. Оставайтесь с нами, качайте любимые фильмы, игры, сериалы, книги и музыку.