img image001 image001 image001 image001 image001 image001 image001 image001 image001 image001 image001 image001 image001 image001 image001

Planets Sun Sun Sun
Статистика раздачи
Автор: Nickolas3434 | Размер: 4.29 ГБ | Добавлен: 13 авг 2014
Раздают: 155    Качают: 56
Скачать торрент
Скачать торрент
Описание торрента

СообщениеДобавлено: 13 авг 2014 

Информация о фильме
Оригинальное название: Два отца и два сына
Год выпуска: 2013
Жанр: Комедия
Режиссер: Радда Новикова
В ролях: Дмитрий Нагиев, Алика Смехова, Максим Студеновский, Виктория Лукина, Илья Костюков, Татьяна Анисимова, Ангелина Притуманова
О фильме: Павел Гуров — успешный актер, любимец женщин, сигар и виски. И то, и другое, и особенно первое необходимо Гурову как воздух. Семья и долгие отношения с девушками не для него. Когда-то давно, Павел оставил в Брянске жену с ребенком и уехал в Москву делать карьеру актера… Прошло 20 лет. Совсем уже взрослый сын Гурова Виктор вместе со своим сыном Владом появляется на отцовском пороге. Виктор приехал чтобы вернуть сбежавшую от него жену Аню. Квартиру отца он воспринимает как временный перевалочный пункт. Однако ни через день, ни через два, ни даже через неделю Аня не возвращается, а Гуров-старший с ужасом для себя понимает, что родственнички приехали надолго…

Страна: Россия
Студия: Yellow, Black & White
Продолжительность: 40 x ~ 00:24:00
Перевод: 40 x ~ 00:26:00
Файл
Качество: WEB-DLRip | КПК
Видео: MPEG-4 AVC (x264), 640x360, ~500 kbps, 25.000 fps
Аудио: AAC LC, 44.1 KHz, 2 ch, 128 Kbps
Субтитры: Нет
Семпл

Complete name : E:KinoDva.Otca.I.Dva.Syna.AVC.WEB-DLRip.KPK.GeneralfilmDva.Otca.I.Dva.Syna.S01.2013.AVC.WEB-DLRip.KPK.GeneralfilmDva.Otca.I.Dva.Syna.s01e10.2013.AVC.WEB-DLRip.KPK.Generalfilm.mp4
Format : MPEG-4
Format profile : Base Media
Codec ID : isom
File size : 109 MiB
Duration : 24mn 8s
Overall bit rate mode : Variable
Overall bit rate : 630 Kbps
Encoded date : UTC 2013-11-25 13:10:05
Tagged date : UTC 2013-11-25 13:10:05
Video
ID : 1
Format : AVC
Format/Info : Advanced Video Codec
Format profile : Baseline@L4.1
Format settings, CABAC : No
Format settings, ReFrames : 6 frames
Codec ID : avc1
Codec ID/Info : Advanced Video Coding
Duration : 24mn 8s
Bit rate : 500 Kbps
Maximum bit rate : 1 832 Kbps
Width : 640 pixels
Height : 360 pixels
Display aspect ratio : 16:9
Frame rate mode : Constant
Frame rate : 25.000 fps
Color space : YUV
Chroma subsampling : 4:2:0
Bit depth : 8 bits
Scan type : Progressive
Bits/(Pixel*Frame) : 0.087
Stream size : 86.3 MiB (79%)
Writing library : x264 core 119 r2106 07efeb4
Encoding settings : cabac=0 / ref=6 / deblock=1:-1:-1 / analyse=0x1:0x111 / me=umh / subme=7 / psy=1 / psy_rd=1.00:0.00 / mixed_ref=0 / me_range=16 / chroma_me=1 / trellis=1 / 8x8dct=0 / cqm=0 / deadzone=21,11 / fast_pskip=0 / chroma_qp_offset=-2 / threads=3 / sliced_threads=0 / nr=0 / decimate=1 / interlaced=0 / bluray_compat=0 / constrained_intra=0 / bframes=0 / weightp=0 / keyint=250 / keyint_min=25 / scenecut=40 / intra_refresh=0 / rc_lookahead=60 / rc=2pass / mbtree=1 / bitrate=500 / ratetol=1.0 / qcomp=0.60 / qpmin=0 / qpmax=69 / qpstep=4 / cplxblur=20.0 / qblur=0.5 / ip_ratio=1.40 / aq=1:1.00
Encoded date : UTC 2013-11-25 13:10:05
Tagged date : UTC 2013-11-25 13:10:25
Audio
ID : 2
Format : AAC
Format/Info : Advanced Audio Codec
Format profile : LC
Codec ID : 40
Duration : 24mn 8s
Bit rate mode : Variable
Bit rate : 127 Kbps
Maximum bit rate : 144 Kbps
Channel count : 2 channels
Channel positions : Front: L R
Sampling rate : 44.1 KHz
Compression mode : Lossy
Stream size : 22.0 MiB (20%)
Encoded date : UTC 2013-11-25 13:10:23
Tagged date : UTC 2013-11-25 13:10:25

Релиз от:



   Похожие торренты   Торрент   Размер 
В этой теме нет новых непрочитанных сообщений. Два отца и два сына [S01-03] (2013-2016) WEB-DLRip от Generalfilm | КПК

0 | 0

6.42 ГБ

В этой теме нет новых непрочитанных сообщений. Два отца и два сына [S01-02] (2013) WEB-DLRip от HitWay

259 | 181

11.56 ГБ

В этой теме нет новых непрочитанных сообщений. Два отца и два сына [01-20 из 20] (2013) WEB-DLRip от HitWay

3 | 6

5.75 ГБ

В этой теме нет новых непрочитанных сообщений. Два отца и два сына [S02] (2014) WEB-DLRip

325 | 567

5.59 ГБ

В этой теме нет новых непрочитанных сообщений. Два отца и два сына [01-02x01-24 из 40] (2013) WEB-DLRip от HitWay

0 | 4

6.9 ГБ

В этой теме нет новых непрочитанных сообщений. Два отца и два сына [01-02x01-38 из 40] (2013) WEB-DLRip от HitWay

24 | 42

10.98 ГБ

В этой теме нет новых непрочитанных сообщений. Два отца и два сына [01-02x01-29 из 40] (2013) WEB-DLRip от HitWay

49 | 70

8.38 ГБ




Вы не можете начинать темы
Вы не можете отвечать на сообщения
Вы не можете редактировать свои сообщения
Вы не можете удалять свои сообщения
Вы не можете добавлять вложения

Перейти:  
Для Мосгорсуда, Роскомнадзора и рекламодателей: mosgorsud-torrent[собачка]yandex.ru
 Вход
ppkBB3cker v.2 © 2008-2014 @ PPK
[ Time : 0.056s | 16 Queries | GZIP : Off ]

cron