img image001 image001 image001 image001 image001 image001 image001 image001 image001 image001 image001 image001 image001 image001 image001

Planets Sun Sun Sun
Статистика раздачи
Автор: Nickolas3434 | Размер: 12.98 ГБ | Добавлен: 16 авг 2014
Раздают: 24    Качают: 13
Скачать торрент
Скачать торрент
Описание торрента

СообщениеДобавлено: 16 авг 2014 

Информация о фильме
Название: Каштаны пустыни
Оригинальное название: Les châtaigniers du désert
Год выхода: 2010
Жанр: клерикальная драма, экранизация
Режиссер: Каролин Юппер
В ролях: Элоди Наварр, Луи Вель, Франсуа Марторе, Тома Жуанне, Изабель Садоян, Матиа Млекюз, Жан-Клод Друо, Джеймс Жерар, Александра Стюарт, Ванесса Гуид
О фильме:
Накануне своей свадьбы молодая успешная женщина решает съездить в свой родной городок в Севеннах, чтобы узнать больше о своих корнях. Это путешествие изменит всю ее жизнь.

Страна: Франция
Продолжительность: 01:31:14 + 01:42:19
Перевод: Профессиональный (многоголосый закадровый)
Файл
Кодек: AVC/H.264
Качество: HDTV 1080i
Видео: 1920x1080 (16:9), 9100 Кбит/сек, 25.000 fps
Звук: MP-2, 48000 Hz, 192 Кбит/сек, 2 ch
Субтитры: нет
Семпл
Видео
Идентификатор : 224 (0xE0)
Идентификатор меню : 1 (0x1)
Формат : AVC
Формат/Информация : Advanced Video Codec
Профиль формата : High@L4.1
Параметр CABAC формата : Да
Параметр ReFrames формата : 3 кадра
Идентификатор кодека : 27
Продолжительность : 1 ч. 31 м.
Вид битрейта : Постоянный
Битрейт : 9100 Кбит/сек
Ширина : 1920 пикселей
Высота : 1080 пикселей
Соотношение сторон : 16:9
Частота кадров : 25,000 кадров/сек
Стандарт вещания : PAL
Цветовое пространство : YUV
Субдискретизация насыщенности : 4:2:0
Битовая глубина : 8 бит
Тип развёртки : Чересстрочная
Порядок развёртки : Верхнее поле первое
Бит/(Пиксели*Кадры) : 0.176
Размер потока : 5,69 Гбайт (93%)
Основные цвета : BT.709
Характеристики трансфера : BT.709
Коэффициенты матрицы : BT.709
Аудио
Идентификатор : 192 (0xC0)
Идентификатор меню : 1 (0x1)
Формат : MPEG Audio
Версия формата : Version 1
Профиль формата : Layer 2
Идентификатор кодека : 3
Продолжительность : 1 ч. 31 м.
Вид битрейта : Постоянный
Битрейт : 192 Кбит/сек
Каналы : 2 канала
Частота : 48,0 КГц
Метод сжатия : С потерями
Задержка видео : 16 мс.
Размер потока : 125 Мбайт (2%)
Язык : Russian


Релиз от: Rmk80disco



   Похожие торренты   Торрент   Размер 
В этой теме нет новых непрочитанных сообщений. National Geographic: Моря пустыни / Desert Seas (2011) HDTV 1080i

2 | 2

1.98 ГБ

В этой теме нет новых непрочитанных сообщений. Принц пустыни / Мактуб - Закон Пустыни / Maktub: The Law Of The Desert (1991) DVDRip-AVC | P

71 | 22

6.4 ГБ

В этой теме нет новых непрочитанных сообщений. Повелитель пустыни / Il dominatore del deserto / le vainqueur du desert / Desert Raiders / Il Dominatore Del Deserto (1964) TVRip | P1

11 | 4

1.65 ГБ

В этой теме нет новых непрочитанных сообщений. Лев пустыни / Lion of the Desert (1981) DVDRip-AVC | L1

20 | 4

3.45 ГБ

В этой теме нет новых непрочитанных сообщений. Лев пустыни / Lion of the Desert (1981) DVDRip | L1

21 | 9

2.05 ГБ

В этой теме нет новых непрочитанных сообщений. Лев пустыни / Lion of the desert (1981) DVD9

0 | 7

7.69 ГБ

В этой теме нет новых непрочитанных сообщений. Койоты: Закон пустыни / Desert Law (2006) PC

3 | 7

1.61 ГБ




Вы не можете начинать темы
Вы не можете отвечать на сообщения
Вы не можете редактировать свои сообщения
Вы не можете удалять свои сообщения
Вы не можете добавлять вложения

Перейти:  
Для Мосгорсуда, Роскомнадзора и рекламодателей: mosgorsud-torrent[собачка]yandex.ru
 Вход
ppkBB3cker v.2 © 2008-2014 @ PPK
[ Time : 0.063s | 16 Queries | GZIP : Off ]

Торрент трекер RUTOR.IN, Не можете зайти на rutor.org? Какой новый адрес рутор? Какое зеркало рутор? Не работает rutor.org и зеркала? Тогда наш торрент специально для вас. Rutor.in неофициальное зеркало rutor. В случае если у Вас заблокирован rutor или вдруг Вы не можете на него зайти, то Вы без труда сможете скачать бесплатно и без рекламы последние новинки кино, игр, сериалов и прочего у нас, на Rutor.in. Не нужно использовать прокси, чтобы зайти на рутор, достаточно воспользоваться нашим ресурсом. Все новые фильмы, игры, сериалы, книги и музыка за 2013 и 2014 годы через торрент бесплатно. Скачивайте фильмы в хорошем качестве, игры для пк, xbox, playstation без регистрации. У нас вы найдете новые Зарубежные сериалы и Русские сериалы 2013, 2014, 2015 годов. Оставайтесь с нами, качайте любимые фильмы, игры, сериалы, книги и музыку.